Вы используете незарегистрированную версию компонента "Вкладки"!

Поиск

(Avant-Garde Jazz, FMR, Free Improvisation, Electroacoustic) [CD] Circuit Electro-Acoustic Ensemble (Trevor Taylor, Jon Seagroatt, Rob Stevenson, Geoff Harris, Pat Thomas) - Pyro - 2011, FLAC (tracks+.cue), lossless

Треклист:
Circuit Electro-Acoustic Ensemble / Pyro
Жанр: Avant-Garde Jazz, FMR, Free Improvisation, Electroacoustic
Носитель: CD
Страна-производитель диска: UK
Год издания: 2011
Издатель (лейбл): FMR Records
Номер по каталогу: FMRCD305-0411
Страна: UK
Аудиокодек: FLAC (*.flac)
Тип рипа: tracks+.cue
Битрейт аудио: lossless
Продолжительность: 63:43
Источник (релизер): свой фирменный диск
Наличие сканов в содержимом раздачи:
Треклист:
1. Quartet 21:04
2. Trio 8:25
3. Duo 6:57
4. Trio 11:13
5. Oxford Trio 16:09
 
Лог создания рипа
Exact Audio Copy V1.0 beta 3 from 29. August 2011
EAC extraction logfile from 26. May 2014, 21:21
Circuit Electro Acoustic Ensemble / Pyro
Used drive : PIONEER DVD-RW DVR-115D Adapter: 0 ID: 0
Read mode : Secure
Utilize accurate stream : Yes
Defeat audio cache : Yes
Make use of C2 pointers : No
Read offset correction : 48
Overread into Lead-In and Lead-Out : No
Fill up missing offset samples with silence : Yes
Delete leading and trailing silent blocks : No
Null samples used in CRC calculations : Yes
Used interface : Installed external ASPI interface
Gap handling : Appended to previous track
Used output format : User Defined Encoder
Selected bitrate : 896 kBit/s
Quality : High
Add ID3 tag : No
Command line compressor : C:\Program Files\Exact Audio Copy\FLAC\FLAC.EXE
Additional command line options : -6 -V -T "ARTIST=%artist%" -T "TITLE=%title%" -T "ALBUM=%albumtitle%" -T "DATE=%year%" -T "TRACKNUMBER=%tracknr%" -T "GENRE=%genre%" -T "COMMENT=%comment%" -T "BAND=%albuminterpret%" -T "COMPOSER=%composer%" %haslyrics%--tag-from-file=LYRICS="%lyricsfile%"%haslyrics% -T "DISCNUMBER=%cdnumber%" -T "TOTALDISCS=%totalcds%" -T "TOTALTRACKS=%numtracks%" %hascover%--picture="%coverfile%"%hascover% %source% -o %dest%
TOC of the extracted CD
Track | Start | Length | Start sector | End sector
---------------------------------------------------------
1 | 0:00.00 | 21:04.70 | 0 | 94869
2 | 21:04.70 | 8:19.36 | 94870 | 132330
3 | 29:24.31 | 6:59.49 | 132331 | 163804
4 | 36:24.05 | 11:21.37 | 163805 | 214916
5 | 47:45.42 | 15:58.00 | 214917 | 286766
Track 1
Filename D:\zzz\01 - Quartet.wav
Pre-gap length 0:00:02.00
Peak level 100.0 %
Extraction speed 5.5 X
Track quality 99.9 %
Test CRC FB8DE8AF
Copy CRC FB8DE8AF
Track not present in AccurateRip database
Copy OK
Track 2
Filename D:\zzz\02 - Trio.wav
Pre-gap length 0:00:02.00
Peak level 100.0 %
Extraction speed 6.9 X
Track quality 100.0 %
Test CRC 3FD66A3A
Copy CRC 3FD66A3A
Track not present in AccurateRip database
Copy OK
Track 3
Filename D:\zzz\03 - Duo.wav
Pre-gap length 0:00:02.00
Peak level 100.0 %
Extraction speed 4.2 X
Track quality 99.7 %
Test CRC 435BCC66
Copy CRC 435BCC66
Track not present in AccurateRip database
Copy OK
Track 4
Filename D:\zzz\04 - Trio.wav
Pre-gap length 0:00:02.00
Peak level 100.0 %
Extraction speed 8.1 X
Track quality 100.0 %
Test CRC DD6F53FE
Copy CRC DD6F53FE
Track not present in AccurateRip database
Copy OK
Track 5
Filename D:\zzz\05 - Oxford Trio.wav
Pre-gap length 0:00:02.00
Peak level 100.0 %
Extraction speed 9.0 X
Track quality 100.0 %
Test CRC 783DCDDB
Copy CRC 783DCDDB
Track not present in AccurateRip database
Copy OK
None of the tracks are present in the AccurateRip database
No errors occurred
End of status report
==== Log checksum 4AA2891EA99944C47D2D9F5DDA107D779FD263D07E01EE728240B3E82142A067 ====
 
Содержание индексной карты (.CUE)
REM GENRE "Electroacoustic Improvisation"
REM DATE 2011
REM DISCID 4D0EEF05
REM COMMENT "ExactAudioCopy v1.0b3"
PERFORMER "Circuit Electro Acoustic Ensemble"
TITLE "Pyro"
FILE "01 - Quartet.wav" WAVE
TRACK 01 AUDIO
TITLE "Quartet"
PERFORMER "Circuit Electro Acoustic Ensemble"
INDEX 01 00:00:00
TRACK 02 AUDIO
TITLE "Trio"
PERFORMER "Circuit Electro Acoustic Ensemble"
INDEX 00 21:02:70
FILE "02 - Trio.wav" WAVE
INDEX 01 00:00:00
TRACK 03 AUDIO
TITLE "Duo"
PERFORMER "Circuit Electro Acoustic Ensemble"
INDEX 00 08:17:36
FILE "03 - Duo.wav" WAVE
INDEX 01 00:00:00
TRACK 04 AUDIO
TITLE "Trio"
PERFORMER "Circuit Electro Acoustic Ensemble"
INDEX 00 06:57:49
FILE "04 - Trio.wav" WAVE
INDEX 01 00:00:00
TRACK 05 AUDIO
TITLE "Oxford Trio"
PERFORMER "Circuit Electro Acoustic Ensemble"
INDEX 00 11:19:37
FILE "05 - Oxford Trio.wav" WAVE
INDEX 01 00:00:00
 
Лог проверки качества
d:\>d:\aucdtect -d/-m0 d:\zzz\*.wav
auCDtect: CD records authenticity detector, version 0.8.2
Copyright (c) 2004 Oleg Berngardt. All rights reserved.
Copyright (c) 2004 Alexander Djourik. All rights reserved.
------------------------------------------------------------
Processing file: [01. Quartet.wav]
------------------------------------------------------------
This track looks like CDDA with probability 100%
------------------------------------------------------------
Processing file: [02. Trio.wav]
------------------------------------------------------------
This track looks like CDDA with probability 100%
------------------------------------------------------------
Processing file: [03. Duo.wav]
------------------------------------------------------------
This track looks like CDDA with probability 100%
------------------------------------------------------------
Processing file: [04. Trio.wav]
------------------------------------------------------------
This track looks like CDDA with probability 100%
------------------------------------------------------------
Processing file: [05. Oxford Trio.wav]
------------------------------------------------------------
This track looks like CDDA with probability 100%
------------------------------------------------------------
Final Conclusion:
------------------------------------------------------------
These tracks looks like CDDA with probability 100%
Доп. информация:
 
Album Info
Recorded at the Whitehouse, Rayleigh UK on 5th Jan 2011 (1-4), live in Oxford on Feb 22nd 2011 (5)
Engineer: Trevor Taylor
Photography: Carol Randall
Artwork: Trevor Taylor
 
Состав
Jon Seagroatt: bass clarinet, soprano sax, electronics
Trevor Taylor: electronic percussion, drums, percussion (1,2,4,5)
Rob Stevenson: alto sax, WX7 wind synth, electronics (1,3)
Geof Harris: electric upright bass, acoustic/electric bass, electronics (1,2,4)
Pat Thomas: Korg keyboard, electronics (5)
По всем вопросам пишите личное сообщение пользователю M0p94ok.
03:41
136
Нет комментариев. Ваш будет первым!