Вы используете незарегистрированную версию компонента "Вкладки"!

Поиск

(Avant-Garde Jazz, Free Improvisation) [CD] Brett Larner, Joelle Leandre, Kazuhisa Uchihashi - No Day Rising - 2003, FLAC (tracks+.cue), lossless

Треклист:
Brett Larner, Joelle Leandre, Kazuhisa Uchihashi / No Day Rising
Жанр: Avant-Garde Jazz, Free Improvisation
Носитель: CD
Страна-производитель диска: Canada
Год издания: 2003
Издатель (лейбл): Spool
Номер по каталогу: SPL121 / LINE 21
Страна: Canada, Japan
Аудиокодек: FLAC (*.flac)
Тип рипа: tracks+.cue
Битрейт аудио: lossless
Продолжительность: 53:48
Источник (релизер): свой фирменный диск
Наличие сканов в содержимом раздачи:
Треклист:
1. 5:15 p.m. 2:19
2. 5:48 p.m. 4:05
3. 6:48 p.m. 5:02
4. 8:03 p.m. 4:50
5. 9:15 p.m. 7:08
6. 11:01 p.m. 2:49
7. 11:42 p.m. 5:24
8. 1:02 a.m. 4:00
9. 2:00 a.m. 2:49
10. 2:42 a.m. 5:35
11. 4:04 a.m. 4:23
12. 5:09 a.m. 1:26
13. 5:31 a.m. 3:58
 
Лог создания рипа
Exact Audio Copy V1.0 beta 3 from 29. August 2011
EAC extraction logfile from 15. June 2014, 12:36
Brett Larner, Joelle Leandre, Kazuhisa Uchihashi / No Day Rising
Used drive : TSSTcorpCDDVDW SH-222AB Adapter: 1 ID: 0
Read mode : Secure
Utilize accurate stream : Yes
Defeat audio cache : Yes
Make use of C2 pointers : No
Read offset correction : 6
Overread into Lead-In and Lead-Out : No
Fill up missing offset samples with silence : Yes
Delete leading and trailing silent blocks : No
Null samples used in CRC calculations : Yes
Used interface : Installed external ASPI interface
Gap handling : Appended to previous track
Used output format : User Defined Encoder
Selected bitrate : 896 kBit/s
Quality : High
Add ID3 tag : No
Command line compressor : C:\Program Files\Exact Audio Copy\FLAC\FLAC.EXE
Additional command line options : -6 -V -T "ARTIST=%artist%" -T "TITLE=%title%" -T "ALBUM=%albumtitle%" -T "DATE=%year%" -T "TRACKNUMBER=%tracknr%" -T "GENRE=%genre%" -T "COMMENT=%comment%" -T "BAND=%albuminterpret%" -T "COMPOSER=%composer%" %haslyrics%--tag-from-file=LYRICS="%lyricsfile%"%haslyrics% -T "DISCNUMBER=%cdnumber%" -T "TOTALDISCS=%totalcds%" -T "TOTALTRACKS=%numtracks%" %hascover%--picture="%coverfile%"%hascover% %source% -o %dest%
TOC of the extracted CD
Track | Start | Length | Start sector | End sector
---------------------------------------------------------
1 | 0:00.00 | 2:18.46 | 0 | 10395
2 | 2:18.46 | 4:05.01 | 10396 | 28771
3 | 6:23.47 | 5:01.51 | 28772 | 51397
4 | 11:25.23 | 4:49.46 | 51398 | 73118
5 | 16:14.69 | 7:07.69 | 73119 | 105212
6 | 23:22.63 | 2:49.01 | 105213 | 117888
7 | 26:11.64 | 5:23.48 | 117889 | 142161
8 | 31:35.37 | 4:00.13 | 142162 | 160174
9 | 35:35.50 | 2:48.52 | 160175 | 172826
10 | 38:24.27 | 5:34.66 | 172827 | 197942
11 | 43:59.18 | 4:22.68 | 197943 | 217660
12 | 48:22.11 | 1:26.31 | 217661 | 224141
13 | 49:48.42 | 4:00.02 | 224142 | 242143
Track 1
Filename D:\zzz\01 - 5-15 p.m..wav
Pre-gap length 0:00:02.00
Peak level 97.7 %
Extraction speed 2.5 X
Track quality 100.0 %
Test CRC EE6F1F7D
Copy CRC EE6F1F7D
Track not present in AccurateRip database
Copy OK
Track 2
Filename D:\zzz\02 - 5-48 p.m..wav
Pre-gap length 0:00:02.60
Peak level 97.7 %
Extraction speed 2.4 X
Track quality 99.9 %
Test CRC 09FCA588
Copy CRC 09FCA588
Track not present in AccurateRip database
Copy OK
Track 3
Filename D:\zzz\03 - 6-48 p.m..wav
Pre-gap length 0:00:02.60
Peak level 59.5 %
Extraction speed 2.8 X
Track quality 100.0 %
Test CRC 6CF623DB
Copy CRC 6CF623DB
Track not present in AccurateRip database
Copy OK
Track 4
Filename D:\zzz\04 - 8-03 p.m..wav
Pre-gap length 0:00:02.23
Peak level 74.9 %
Extraction speed 2.8 X
Track quality 100.0 %
Test CRC E706A01D
Copy CRC E706A01D
Track not present in AccurateRip database
Copy OK
Track 5
Filename D:\zzz\05 - 9-15 p.m..wav
Pre-gap length 0:00:05.21
Peak level 97.7 %
Extraction speed 2.6 X
Track quality 99.9 %
Test CRC E48FFEB1
Copy CRC E48FFEB1
Track not present in AccurateRip database
Copy OK
Track 6
Filename D:\zzz\06 - 11-01 p.m..wav
Pre-gap length 0:00:02.22
Peak level 97.7 %
Extraction speed 2.5 X
Track quality 100.0 %
Test CRC A9F78887
Copy CRC A9F78887
Track not present in AccurateRip database
Copy OK
Track 7
Filename D:\zzz\07 - 11-42 p.m..wav
Pre-gap length 0:00:03.60
Peak level 66.2 %
Extraction speed 2.8 X
Track quality 100.0 %
Test CRC CAFDA4A6
Copy CRC CAFDA4A6
Track not present in AccurateRip database
Copy OK
Track 8
Filename D:\zzz\08 - 1-02 a.m..wav
Pre-gap length 0:00:02.60
Peak level 97.7 %
Extraction speed 2.7 X
Track quality 100.0 %
Test CRC 19C4DDCF
Copy CRC 19C4DDCF
Track not present in AccurateRip database
Copy OK
Track 9
Filename D:\zzz\09 - 2-00 a.m..wav
Pre-gap length 0:00:02.60
Peak level 96.1 %
Extraction speed 2.5 X
Track quality 100.0 %
Test CRC FF87FBF9
Copy CRC FF87FBF9
Track not present in AccurateRip database
Copy OK
Track 10
Filename D:\zzz\10 - 2-42 a.m..wav
Pre-gap length 0:00:02.60
Peak level 97.7 %
Extraction speed 2.8 X
Track quality 100.0 %
Test CRC BF7FCC72
Copy CRC BF7FCC72
Track not present in AccurateRip database
Copy OK
Track 11
Filename D:\zzz\11 - 4-04 a.m..wav
Pre-gap length 0:00:02.22
Peak level 92.0 %
Extraction speed 2.4 X
Track quality 99.9 %
Test CRC 41420B86
Copy CRC 41420B86
Track not present in AccurateRip database
Copy OK
Track 12
Filename D:\zzz\12 - 5-09 a.m..wav
Pre-gap length 0:00:04.59
Peak level 97.7 %
Extraction speed 2.2 X
Track quality 100.0 %
Test CRC 3D9E052C
Copy CRC 3D9E052C
Track not present in AccurateRip database
Copy OK
Track 13
Filename D:\zzz\13 - 5-31 a.m..wav
Pre-gap length 0:00:02.60
Peak level 89.2 %
Extraction speed 2.3 X
Track quality 99.9 %
Test CRC DD88FCCC
Copy CRC DD88FCCC
Track not present in AccurateRip database
Copy OK
None of the tracks are present in the AccurateRip database
No errors occurred
End of status report
==== Log checksum 5819C9195443B1BF8F51ADA88570A337573CA7BF07A315774BC51520A742EF3E ====
 
Содержание индексной карты (.CUE)
REM GENRE "Free Improvisation"
REM DATE 2003
REM DISCID BC0C9C0D
REM COMMENT "ExactAudioCopy v1.0b3"
PERFORMER "Brett Larner, Joelle Leandre, Kazuhisa Uchihashi"
TITLE "No Day Rising"
FILE "01 - 5-15 p.m..wav" WAVE
TRACK 01 AUDIO
TITLE "5:15 p.m."
PERFORMER "Brett Larner, Joelle Leandre, Kazuhisa Uchihashi"
FLAGS DCP
INDEX 01 00:00:00
TRACK 02 AUDIO
TITLE "5:48 p.m."
PERFORMER "Brett Larner, Joelle Leandre, Kazuhisa Uchihashi"
FLAGS DCP
INDEX 00 02:15:61
FILE "02 - 5-48 p.m..wav" WAVE
INDEX 01 00:00:00
TRACK 03 AUDIO
TITLE "6:48 p.m."
PERFORMER "Brett Larner, Joelle Leandre, Kazuhisa Uchihashi"
FLAGS DCP
INDEX 00 04:02:16
FILE "03 - 6-48 p.m..wav" WAVE
INDEX 01 00:00:00
TRACK 04 AUDIO
TITLE "8:03 p.m."
PERFORMER "Brett Larner, Joelle Leandre, Kazuhisa Uchihashi"
FLAGS DCP
INDEX 00 04:59:28
FILE "04 - 8-03 p.m..wav" WAVE
INDEX 01 00:00:00
TRACK 05 AUDIO
TITLE "9:15 p.m."
PERFORMER "Brett Larner, Joelle Leandre, Kazuhisa Uchihashi"
FLAGS DCP
INDEX 00 04:44:25
FILE "05 - 9-15 p.m..wav" WAVE
INDEX 01 00:00:00
TRACK 06 AUDIO
TITLE "11:01 p.m."
PERFORMER "Brett Larner, Joelle Leandre, Kazuhisa Uchihashi"
FLAGS DCP
INDEX 00 07:05:47
FILE "06 - 11-01 p.m..wav" WAVE
INDEX 01 00:00:00
TRACK 07 AUDIO
TITLE "11:42 p.m."
PERFORMER "Brett Larner, Joelle Leandre, Kazuhisa Uchihashi"
FLAGS DCP
INDEX 00 02:45:16
FILE "07 - 11-42 p.m..wav" WAVE
INDEX 01 00:00:00
TRACK 08 AUDIO
TITLE "1:02 a.m."
PERFORMER "Brett Larner, Joelle Leandre, Kazuhisa Uchihashi"
FLAGS DCP
INDEX 00 05:20:63
FILE "08 - 1-02 a.m..wav" WAVE
INDEX 01 00:00:00
TRACK 09 AUDIO
TITLE "2:00 a.m."
PERFORMER "Brett Larner, Joelle Leandre, Kazuhisa Uchihashi"
FLAGS DCP
INDEX 00 03:57:28
FILE "09 - 2-00 a.m..wav" WAVE
INDEX 01 00:00:00
TRACK 10 AUDIO
TITLE "2:42 a.m."
PERFORMER "Brett Larner, Joelle Leandre, Kazuhisa Uchihashi"
FLAGS DCP
INDEX 00 02:45:67
FILE "10 - 2-42 a.m..wav" WAVE
INDEX 01 00:00:00
TRACK 11 AUDIO
TITLE "4:04 a.m."
PERFORMER "Brett Larner, Joelle Leandre, Kazuhisa Uchihashi"
FLAGS DCP
INDEX 00 05:32:44
FILE "11 - 4-04 a.m..wav" WAVE
INDEX 01 00:00:00
TRACK 12 AUDIO
TITLE "5:09 a.m."
PERFORMER "Brett Larner, Joelle Leandre, Kazuhisa Uchihashi"
FLAGS DCP
INDEX 00 04:18:09
FILE "12 - 5-09 a.m..wav" WAVE
INDEX 01 00:00:00
TRACK 13 AUDIO
TITLE "5:31 a.m."
PERFORMER "Brett Larner, Joelle Leandre, Kazuhisa Uchihashi"
FLAGS DCP
INDEX 00 01:23:46
FILE "13 - 5-31 a.m..wav" WAVE
INDEX 01 00:00:00
 
Лог проверки качества
d:\>d:\aucdtect -d/-m0 d:\zzz\*.wav
auCDtect: CD records authenticity detector, version 0.8.2
Copyright (c) 2004 Oleg Berngardt. All rights reserved.
Copyright (c) 2004 Alexander Djourik. All rights reserved.
------------------------------------------------------------
Processing file: [01. 5-15 p.m..wav]
------------------------------------------------------------
This track looks like CDDA with probability 100%
------------------------------------------------------------
Processing file: [02. 5-48 p.m..wav]
------------------------------------------------------------
This track looks like CDDA with probability 100%
------------------------------------------------------------
Processing file: [03. 6-48 p.m..wav]
------------------------------------------------------------
This track looks like CDDA with probability 62%
------------------------------------------------------------
Processing file: [04. 8-03 p.m..wav]
------------------------------------------------------------
This track looks like CDDA with probability 100%
------------------------------------------------------------
Processing file: [05. 9-15 p.m..wav]
------------------------------------------------------------
This track looks like CDDA with probability 100%
------------------------------------------------------------
Processing file: [06. 11-01 p.m..wav]
------------------------------------------------------------
This track looks like CDDA with probability 100%
------------------------------------------------------------
Processing file: [07. 11-42 p.m..wav]
------------------------------------------------------------
This track looks like CDDA with probability 100%
------------------------------------------------------------
Processing file: [08. 1-02 a.m..wav]
------------------------------------------------------------
This track looks like CDDA with probability 100%
------------------------------------------------------------
Processing file: [09. 2-00 a.m..wav]
------------------------------------------------------------
This track looks like CDDA with probability 100%
------------------------------------------------------------
Processing file: [10. 2-42 a.m..wav]
------------------------------------------------------------
This track looks like CDDA with probability 100%
------------------------------------------------------------
Processing file: [11. 4-04 a.m..wav]
------------------------------------------------------------
This track looks like CDDA with probability 100%
------------------------------------------------------------
Processing file: [12. 5-09 a.m..wav]
------------------------------------------------------------
This track looks like CDDA with probability 100%
------------------------------------------------------------
Processing file: [13. 5-31 a.m..wav]
------------------------------------------------------------
This track looks like CDDA with probability 100%
------------------------------------------------------------
Final Conclusion:
------------------------------------------------------------
These tracks looks like CDDA with probability 100%
Доп. информация:
 
Album Info & AMG Review
All music (C) 2003 Brett Larner, Joelle Leandre and Kazuhisa Uchihashi
Recorded 10/28/02 by Tadashi Usami at CCM Studio, Oakland, CA
Mastered 11/29/02 by Myles Boisen at Headless Buddha Mastering Lab, Oakland, CA
Thanks to Rob Pumpelly and Jonathan Segel for their amps and to Daniel and Vern at Spool
Front cover art 'Nebula' by Brian Schorn
Graphic design by Amy Heggie
Liner notes: Brett Larner, San Leandro, 5/22/02
"A peculiar set of short pieces, almost a pop album," deadpans Brett Larner at the end of his liner notes. But don't worry, brevity is the only trait this music shares with pop: no vacuity in content or pre-fabricated emotions in the delivery. Brett Larner, Joëlle Léandre, and Kazuhisa Uchihashi all knew each other and had performed with each other prior to this studio session. All it took was a small window of opportunity for the kotoist to bring the other two inside the studio for an all-nighter. Larner is temporarily out of his extremely quiet endeavors (see Compositions for Guitars released a few months earlier) and back to a more conversational style at the koto. When he plays the bass koto (prepared or not), the instrument fills the sound spectrum, its harmonics building alliances with Léandre's double bass and Uchihashi's electric guitar. The latter has come a long way from his days with Ground Zero and Altered States. His playing is that of a refined free improviser. For "11:42 P.M." (all tracks bear similar titles) he moves to the daxophone, but it is recorded from afar and tucked into the right stereo channel, depriving the plaintive human-like voice of the instrument from its eerie power. It's all the contrary on the short but gripping duet between koto and daxophone in "5:09 A.M." and the pretty concluding trio, where Larner goes back to more traditional koto playing and Léandre develops an uplifting instant melody. Those last two tracks aside, the music remains rather calm and studious throughout, with a certain effort discernible in some places. In other words, it is not the most comfortable free improv session, but it contains some very fine moments.
 
Состав
Brett Larner: koto, bass koto, prepared bass koto
Joelle Leandre: contrabass
Kazuhisa Uchihashi: electric guitar, daxophone
По всем вопросам пишите личное сообщение пользователю M0p94ok.
03:41
140
Нет комментариев. Ваш будет первым!