Вы используете незарегистрированную версию компонента "Вкладки"!

Поиск

(Avant-Garde, Free Improvisation, NotTwo Records) [CD] Kirk Knuffke & Mike Pride - The Exterminating Angel - 2012, FLAC (tracks+.cue), lossless

(Avant-Garde, Free Improvisation, NotTwo Records) [CD] Kirk Knuffke & Mike Pride - The Exterminating Angel - 2012, FLAC (tracks+.cue), lossless
Треклист:
Kirk Knuffke & Mike Pride / The Exterminating Angel
Жанр: Avant-Garde, Free Improvisation, NotTwo Records
Носитель: CD
Страна-производитель диска: Poland
Год издания: 2012
Издатель (лейбл): NotTwo Records
Номер по каталогу: MW 842-2
Аудиокодек: FLAC (*.flac)
Тип рипа: tracks+.cue
Битрейт аудио: lossless
Продолжительность: 1:08:53
Источник (релизер): я
Наличие сканов в содержимом раздачи: да
Треклист:
1. Appeasing the Geezer 9:55
2. Goldie 2:09
3. Moritz 10:04
4. Exterminating Angel 12:11
5. Benstein 11:25
6. SUPERDIXON 23:09
All music by Kirk Knuffke & Mike Pride.
Recorded at Funhole Studios, Sunset Park, Brooklyn, NY, on May 13 & July 2, 2010.
Kirk Knuffke – Cornet
Mike Pride – Drums & Percussion
Paintings & Design by Mike Pride.
 
Лог создания рипа
Exact Audio Copy V1.0 beta 3 from 29. August 2011
EAC extraction logfile from 19. June 2014, 17:47
Kirk Knuffke & Mike Pride / The Exterminating Angel
Used drive : SlimtypeeNAU508 5 Adapter: 1 ID: 0
Read mode : Secure
Utilize accurate stream : Yes
Defeat audio cache : Yes
Make use of C2 pointers : No
Read offset correction : 6
Overread into Lead-In and Lead-Out : No
Fill up missing offset samples with silence : Yes
Delete leading and trailing silent blocks : No
Null samples used in CRC calculations : Yes
Used interface : Native Win32 interface for Win NT & 2000
Gap handling : Appended to previous track
Used output format : User Defined Encoder
Selected bitrate : 768 kBit/s
Quality : High
Add ID3 tag : No
Command line compressor : C:\Program Files (x86)\Exact Audio Copy\Flac\flac.exe
Additional command line options : -8 -V -T "ARTIST=%artist%" -T "TITLE=%title%" -T "ALBUM=%albumtitle%" -T "DATE=%year%" -T "TRACKNUMBER=%tracknr%" -T "TOTALTRACKS=%numtracks%" -T "GENRE=%genre%" -T "ALBUMARTIST=%albumartist%" -T "ALBUM ARTIST=%albumartist%" -T "COMMENT=EAC Secure Mode, Test & Copy, AccurateRip, FLAC -8" %source%
TOC of the extracted CD
Track | Start | Length | Start sector | End sector
---------------------------------------------------------
1 | 0:00.00 | 9:55.03 | 0 | 44627
2 | 9:55.03 | 2:09.05 | 44628 | 54307
3 | 12:04.08 | 10:03.48 | 54308 | 99580
4 | 22:07.56 | 12:10.65 | 99581 | 154395
5 | 34:18.46 | 11:25.30 | 154396 | 205800
6 | 45:44.01 | 23:09.00 | 205801 | 309975
Track 1
Filename C:\EAC rips\01 - Appeasing the Geezer.wav
Pre-gap length 0:00:02.00
Peak level 98.8 %
Extraction speed 2.6 X
Track quality 100.0 %
Test CRC C6D82564
Copy CRC C6D82564
Track not present in AccurateRip database
Copy OK
Track 2
Filename C:\EAC rips\02 - Goldie.wav
Pre-gap length 0:00:02.00
Peak level 98.8 %
Extraction speed 2.4 X
Track quality 100.0 %
Test CRC AA325331
Copy CRC AA325331
Track not present in AccurateRip database
Copy OK
Track 3
Filename C:\EAC rips\03 - Moritz.wav
Peak level 98.8 %
Extraction speed 3.2 X
Track quality 100.0 %
Test CRC 4C74CE41
Copy CRC 4C74CE41
Track not present in AccurateRip database
Copy OK
Track 4
Filename C:\EAC rips\04 - Exterminating Angel.wav
Peak level 98.8 %
Extraction speed 3.7 X
Track quality 100.0 %
Test CRC F0D26C2B
Copy CRC F0D26C2B
Track not present in AccurateRip database
Copy OK
Track 5
Filename C:\EAC rips\05 - Benstein.wav
Peak level 98.8 %
Extraction speed 4.2 X
Track quality 100.0 %
Test CRC A3B53C72
Copy CRC A3B53C72
Track not present in AccurateRip database
Copy OK
Track 6
Filename C:\EAC rips\06 - SUPERDIXON.wav
Peak level 100.0 %
Extraction speed 4.7 X
Track quality 100.0 %
Test CRC FB2796B1
Copy CRC FB2796B1
Track not present in AccurateRip database
Copy OK
None of the tracks are present in the AccurateRip database
No errors occurred
End of status report
---- CUETools DB Plugin V2.1.4
[CTDB TOCID: 3uWTNd8RhbED.jycsi2blI4nX5c-] disk not present in database
Submit result: 3uWTNd8RhbED.jycsi2blI4nX5c- has been uploaded
==== Log checksum C21027C5382505F2C26B9AD482444065CD81406B478405A97788C6048A29E9B4 ====
 
Содержание индексной карты (.CUE)
REM GENRE "NotTwo  MW 842-2"
REM DATE 2012
REM DISCID 50102506
REM COMMENT "ExactAudioCopy v1.0b3"
PERFORMER "Kirk Knuffke & Mike Pride"
TITLE "The Exterminating Angel"
FILE "01 - Appeasing the Geezer.wav" WAVE
TRACK 01 AUDIO
TITLE "Appeasing the Geezer"
PERFORMER "Kirk Knuffke & Mike Pride"
INDEX 01 00:00:00
TRACK 02 AUDIO
TITLE "Goldie"
PERFORMER "Kirk Knuffke & Mike Pride"
INDEX 00 09:53:03
FILE "02 - Goldie.wav" WAVE
INDEX 01 00:00:00
FILE "03 - Moritz.wav" WAVE
TRACK 03 AUDIO
TITLE "Moritz"
PERFORMER "Kirk Knuffke & Mike Pride"
INDEX 01 00:00:00
FILE "04 - Exterminating Angel.wav" WAVE
TRACK 04 AUDIO
TITLE "Exterminating Angel"
PERFORMER "Kirk Knuffke & Mike Pride"
INDEX 01 00:00:00
FILE "05 - Benstein.wav" WAVE
TRACK 05 AUDIO
TITLE "Benstein"
PERFORMER "Kirk Knuffke & Mike Pride"
INDEX 01 00:00:00
FILE "06 - SUPERDIXON.wav" WAVE
TRACK 06 AUDIO
TITLE "SUPERDIXON"
PERFORMER "Kirk Knuffke & Mike Pride"
INDEX 01 00:00:00
По всем вопросам пишите личное сообщение пользователю M0p94ok.
03:43
134
Нет комментариев. Ваш будет первым!