Вы используете незарегистрированную версию компонента "Вкладки"!

Поиск

(Free Jazz, Avant-Garde Jazz) Michael Marcus (with Ted Daniel, Joseph Bowie, William Parker and Reggie Nicholson) - Under The Wire - 1991, FLAC (image+.cue), lossless

(Free Jazz, Avant-Garde Jazz) Michael Marcus (with Ted Daniel, Joseph Bowie, William Parker and Reggie Nicholson) - Under The Wire - 1991, FLAC (image+.cue), lossless
Треклист:
Michael Marcus / Under The Wire
Жанр: Free Jazz, Avant-Garde Jazz
Страна-производитель диска: Switzerland
Год издания диска: 1991
Издатель (лейбл): enja
Номер по каталогу: 6064 2
Аудиокодек: FLAC (*.flac)
Тип рипа: image+.cue
Битрейт аудио: lossless
Продолжительность: 52:14
Источник (релизер): Собственный рип с оригинального диска
Наличие сканов в содержимом раздачи: да
Треклист:
1 Michael Marcus 243 - Gummin' (09:05)
2 Michael Marcus 243 - Blue Halo (10:30)
3 Michael Marcus 243 - Dance Of The Angels (05:38)
4 Michael Marcus 243 - Piplines (05:29)
5 Michael Marcus 243 - Kingdom's Chair (05:21)
6 Michael Marcus 243 - Under The Wire (05:24)
7 Michael Marcus 243 - Common Ground (06:47)
8 Michael Marcus 243 - Tribute (03:59)
 
Лог создания рипа
Exact Audio Copy V0.99 prebeta 5 from 4. May 2009
EAC extraction logfile from 1. October 2011, 23:26
Michael Marcus 243 / Under The Wire
Used drive : Optiarc DVD RW AD-5200S Adapter: 0 ID: 1
Read mode : Secure
Utilize accurate stream : Yes
Defeat audio cache : Yes
Make use of C2 pointers : No
Read offset correction : 48
Overread into Lead-In and Lead-Out : No
Fill up missing offset samples with silence : Yes
Delete leading and trailing silent blocks : No
Null samples used in CRC calculations : Yes
Used interface : Native Win32 interface for Win NT & 2000
Used output format : Internal WAV Routines
Sample format : 44.100 Hz; 16 Bit; Stereo
TOC of the extracted CD
Track | Start | Length | Start sector | End sector
---------------------------------------------------------
1 | 0:00.33 | 9:05.00 | 33 | 40907
2 | 9:05.33 | 10:30.00 | 40908 | 88157
3 | 19:35.33 | 5:38.00 | 88158 | 113507
4 | 25:13.33 | 5:29.00 | 113508 | 138182
5 | 30:42.33 | 5:21.00 | 138183 | 162257
6 | 36:03.33 | 5:24.00 | 162258 | 186557
7 | 41:27.33 | 6:47.00 | 186558 | 217082
8 | 48:14.33 | 4:00.25 | 217083 | 235107
Range status and errors
Selected range
Filename H:\FOS\MY_MUSIC\Michael Marcus 243 - Under The Wire\Michael Marcus 243 - Under The Wire.wav
Peak level 100.0 %
Range quality 100.0 %
Test CRC C21610C8
Copy CRC C21610C8
Copy OK
No errors occurred
End of status report
 
Содержание индексной карты (.CUE)
REM DISCID 7D0C3E08
REM COMMENT "ExactAudioCopy v0.99pb5"
PERFORMER "Michael Marcus 243"
TITLE "Under The Wire"
FILE "Michael Marcus 243 - Under The Wire.wav" WAVE
TRACK 01 AUDIO
TITLE "Gummin'"
PERFORMER "Michael Marcus 243"
INDEX 00 00:00:00
INDEX 01 00:00:33
TRACK 02 AUDIO
TITLE "Blue Halo"
PERFORMER "Michael Marcus 243"
INDEX 00 09:01:45
INDEX 01 09:05:33
TRACK 03 AUDIO
TITLE "Dance Of The Angels"
PERFORMER "Michael Marcus 243"
INDEX 00 19:31:68
INDEX 01 19:35:33
TRACK 04 AUDIO
TITLE "Piplines"
PERFORMER "Michael Marcus 243"
INDEX 00 25:10:33
INDEX 01 25:13:33
TRACK 05 AUDIO
TITLE "Kingdom's Chair"
PERFORMER "Michael Marcus 243"
INDEX 00 30:39:00
INDEX 01 30:42:33
TRACK 06 AUDIO
TITLE "Under The Wire"
PERFORMER "Michael Marcus 243"
INDEX 00 35:59:68
INDEX 01 36:03:33
TRACK 07 AUDIO
TITLE "Common Ground"
PERFORMER "Michael Marcus 243"
INDEX 00 41:23:73
INDEX 01 41:27:33
TRACK 08 AUDIO
TITLE "Tribute"
PERFORMER "Michael Marcus 243"
INDEX 00 48:10:70
INDEX 01 48:14:33
 
Состав
Michael Marcus b-cl, stritch
Ted Daniel co, tp
Joseph Bowie tb
William Parker b
Reggie Nicholson dr
По всем вопросам пишите личное сообщение пользователю M0p94ok.
17:14
184
Нет комментариев. Ваш будет первым!