Вы используете незарегистрированную версию компонента "Вкладки"!

Поиск

(Free Jazz) Akira Sakata & Jim O'Rourke with Chikamorachi (Darin Gray, Chris Corsano) - and that's the story of jazz... - 2011, FLAC (tracks+.cue), lossless

(Free Jazz) Akira Sakata & Jim O'Rourke with Chikamorachi (Darin Gray, Chris Corsano) - and that's the story of jazz... - 2011, FLAC (tracks+.cue), lossless
Треклист:
Akira Sakata & Jim O'Rourke with Chikamorachi / and that's the story of jazz...
Жанр: Free Jazz
Страна-производитель диска: США
Год издания диска: 2011
Издатель (лейбл): Family Vineyard
Номер по каталогу: FV78
Страна: Япония, США
Аудиокодек: FLAC (*.flac)
Тип рипа: tracks+.cue
Битрейт аудио: lossless
Продолжительность: 1:42:14
Источник (релизер): вот.сиди (letskillsamt)
Наличие сканов в содержимом раздачи: да
Треклист:
CD1
1.1 Kyoto 28:24
1.2 Hanamaki 25:25
CD2
2.1 Nagoya 1 22:41
2.2 Nagoya 2 10:37
2.3 Nagoya 3 15:01
Recorded during October 2008 Japan tour straight to two-track by Steamroom Mobile.
 
Лог создания рипа
Exact Audio Copy V1.0 beta 2 from 29. April 2011
EAC extraction logfile from 21. September 2011, 22:07
Akira Sakata & Jim O'Rourke With Chikamorachi / And That's The Story Of Jazz...
Used drive : TSSTcorpDVD+-RW TS-H653G Adapter: 1 ID: 0
Read mode : Secure
Utilize accurate stream : Yes
Defeat audio cache : Yes
Make use of C2 pointers : No
Read offset correction : 6
Overread into Lead-In and Lead-Out : No
Fill up missing offset samples with silence : Yes
Delete leading and trailing silent blocks : No
Null samples used in CRC calculations : Yes
Used interface : Native Win32 interface for Win NT & 2000
Gap handling : Appended to previous track
Used output format : User Defined Encoder
Selected bitrate : 896 kBit/s
Quality : High
Add ID3 tag : No
Command line compressor : C:\Program Files (x86)\Exact Audio Copy\Flac\flac.exe
Additional command line options : -8 -V -T "ARTIST=%artist%" -T "TITLE=%title%" -T "ALBUM=%albumtitle%" -T "DATE=%year%" -T "TRACKNUMBER=%tracknr%" -T "GENRE=%genre%" -T "PERFORMER=%albuminterpret%" -T "COMPOSER=%composer%" %haslyrics%--tag-from-file=LYRICS
TOC of the extracted CD
Track | Start | Length | Start sector | End sector
---------------------------------------------------------
1 | 0:00.00 | 28:28.03 | 0 | 128102
2 | 28:28.03 | 25:25.21 | 128103 | 242498
Track 1
Filename C:\EAC Rips\Akira Sakata & Jim O'Rourke with Chikamorachi - And That's The Story of Jazz... (2011) [FLAC] {FV78}\Disc 1\01 - Kyoto.wav
Pre-gap length 0:00:02.00
Peak level 100.0 %
Extraction speed 2.7 X
Track quality 100.0 %
Test CRC D9B52261
Copy CRC D9B52261
Track not present in AccurateRip database
Copy OK
Track 2
Filename C:\EAC Rips\Akira Sakata & Jim O'Rourke with Chikamorachi - And That's The Story of Jazz... (2011) [FLAC] {FV78}\Disc 1\02 - Hanamaki.wav
Pre-gap length 0:00:04.00
Peak level 100.0 %
Extraction speed 3.7 X
Track quality 100.0 %
Test CRC 92E33A8D
Copy CRC 92E33A8D
Track not present in AccurateRip database
Copy OK
None of the tracks are present in the AccurateRip database
No errors occurred
End of status report
==== Log checksum E7835E1295D6BC20542A299087D05E19FD12B24A8A02294640F0CC268C6164CF ====


Exact Audio Copy V1.0 beta 2 from 29. April 2011
EAC extraction logfile from 21. September 2011, 22:59
Akira Sakata & Jim O'Rourke With Chikamorachi / And That's The Story Of Jazz...
Used drive : TSSTcorpDVD+-RW TS-H653G Adapter: 1 ID: 0
Read mode : Secure
Utilize accurate stream : Yes
Defeat audio cache : Yes
Make use of C2 pointers : No
Read offset correction : 6
Overread into Lead-In and Lead-Out : No
Fill up missing offset samples with silence : Yes
Delete leading and trailing silent blocks : No
Null samples used in CRC calculations : Yes
Used interface : Native Win32 interface for Win NT & 2000
Gap handling : Appended to previous track
Used output format : User Defined Encoder
Selected bitrate : 896 kBit/s
Quality : High
Add ID3 tag : No
Command line compressor : C:\Program Files (x86)\Exact Audio Copy\Flac\flac.exe
Additional command line options : -8 -V -T "ARTIST=%artist%" -T "TITLE=%title%" -T "ALBUM=%albumtitle%" -T "DATE=%year%" -T "TRACKNUMBER=%tracknr%" -T "GENRE=%genre%" -T "PERFORMER=%albuminterpret%" -T "COMPOSER=%composer%" %haslyrics%--tag-from-file=LYRICS
TOC of the extracted CD
Track | Start | Length | Start sector | End sector
---------------------------------------------------------
1 | 0:00.00 | 22:42.47 | 0 | 102196
2 | 22:42.47 | 10:36.51 | 102197 | 149947
3 | 33:19.23 | 15:01.25 | 149948 | 217547
Track 1
Filename C:\EAC Rips\Akira Sakata & Jim O'Rourke with Chikamorachi - And That's The Story of Jazz... (2011) [FLAC] {FV78}\Disc 2\01 - Nagoya 1.wav
Pre-gap length 0:00:02.00
Peak level 100.0 %
Extraction speed 2.3 X
Track quality 100.0 %
Test CRC D9EB84F2
Copy CRC D9EB84F2
Track not present in AccurateRip database
Copy OK
Track 2
Filename C:\EAC Rips\Akira Sakata & Jim O'Rourke with Chikamorachi - And That's The Story of Jazz... (2011) [FLAC] {FV78}\Disc 2\02 - Nagoya 2.wav
Pre-gap length 0:00:02.00
Peak level 100.0 %
Extraction speed 2.9 X
Track quality 100.0 %
Test CRC D484DC18
Copy CRC D484DC18
Track not present in AccurateRip database
Copy OK
Track 3
Filename C:\EAC Rips\Akira Sakata & Jim O'Rourke with Chikamorachi - And That's The Story of Jazz... (2011) [FLAC] {FV78}\Disc 2\03 - Nagoya 3.wav
Pre-gap length 0:00:02.00
Peak level 100.0 %
Extraction speed 3.4 X
Track quality 100.0 %
Test CRC 68FE4143
Copy CRC 68FE4143
Track not present in AccurateRip database
Copy OK
None of the tracks are present in the AccurateRip database
No errors occurred
End of status report
==== Log checksum 460A02545F339AA6D9BCBD1B67187CCA7C525C6536D24F41D5F4FC6CE7266BD3 ====
 
Содержание индексной карты (.CUE)
REM GENRE Jazz
REM DATE 2011
REM DISCID 0B0CA102
REM COMMENT "ExactAudioCopy v1.0b2"
PERFORMER "Akira Sakata & Jim O'Rourke With Chikamorachi"
TITLE "And That's The Story Of Jazz..."
FILE "01 - Kyoto.wav" WAVE
TRACK 01 AUDIO
TITLE "Kyoto"
PERFORMER "Akira Sakata & Jim O'Rourke With Chikamorachi"
INDEX 01 00:00:00
TRACK 02 AUDIO
TITLE "Hanamaki"
PERFORMER "Akira Sakata & Jim O'Rourke With Chikamorachi"
INDEX 00 28:24:03
FILE "02 - Hanamaki.wav" WAVE
INDEX 01 00:00:00


REM GENRE Jazz
REM DATE 2011
REM DISCID 130B5403
REM COMMENT "ExactAudioCopy v1.0b2"
PERFORMER "Akira Sakata & Jim O'Rourke With Chikamorachi"
TITLE "And That's The Story Of Jazz..."
FILE "01 - Nagoya 1.wav" WAVE
TRACK 01 AUDIO
TITLE "Nagoya 1"
PERFORMER "Akira Sakata & Jim O'Rourke With Chikamorachi"
INDEX 01 00:00:00
TRACK 02 AUDIO
TITLE "Nagoya 2"
PERFORMER "Akira Sakata & Jim O'Rourke With Chikamorachi"
INDEX 00 22:40:47
FILE "02 - Nagoya 2.wav" WAVE
INDEX 01 00:00:00
TRACK 03 AUDIO
TITLE "Nagoya 3"
PERFORMER "Akira Sakata & Jim O'Rourke With Chikamorachi"
INDEX 00 10:34:51
FILE "03 - Nagoya 3.wav" WAVE
INDEX 01 00:00:00
 
Лог проверки качества
AUDIOCHECKER v2.0 beta (build 457) - by Dester - opdester@freemail.hu
~~~~~~~~~~~~~~~~~~~~~~~~~~~~~~~~~~
-=== DO NOT EDIT THIS FILE! ===-
Path: ...\Disc 1
1 -=- 01 - Kyoto.flac -=- CDDA (99%)
2 -=- 02 - Hanamaki.flac -=- CDDA (100%)
Summary 99,50% CDDA
95174340


AUDIOCHECKER v2.0 beta (build 457) - by Dester - opdester@freemail.hu
~~~~~~~~~~~~~~~~~~~~~~~~~~~~~~~~~~
-=== DO NOT EDIT THIS FILE! ===-
Path: ...\Disc 2
1 -=- 01 - Nagoya 1.flac -=- CDDA (100%)
2 -=- 02 - Nagoya 2.flac -=- CDDA (100%)
3 -=- 03 - Nagoya 3.flac -=- CDDA (100%)
Summary 100,00% CDDA
136059108
 
Состав
Akira Sakata alto saxophone, vocals
Jim O'Rourke guitar, harmonica, electronics
Darin Gray double bass, percussion, bells
Chris Corsano drums
По всем вопросам пишите личное сообщение пользователю M0p94ok.
17:16
174
Нет комментариев. Ваш будет первым!