Вы используете незарегистрированную версию компонента "Вкладки"!

Поиск

(Contemporary Jazz, Post-Bop, Piano Jazz, Saxophone Jazz) Archie Shepp & Joachim Kuhn - Wo!Man - 2011, FLAC (tracks+.cue), lossless

Треклист:
Archie Shepp & Joachim Kuhn - Wo!Man
Жанр: Contemporary Jazz, Post-Bop, Piano Jazz, Saxophone Jazz
Страна-производитель диска: USA
Год издания диска: 2011
Издатель (лейбл): Harmonia Mundi / Archie Ball
Номер по каталогу: ARCH 1102
Страна: Fort Lauderdale, Florida, U.S.
Аудиокодек: FLAC (*.flac)
Тип рипа: tracks+.cue
Битрейт аудио: lossless
Продолжительность: 01:06:29
Источник (релизер): ruskaval
Наличие сканов в содержимом раздачи: да
01. Transmitting [09:49]
02. Nina [06:38]
03. Drivin' Miss Daisy [04:28]
04. Sketch final coda sax Monette [10:21]
05. Harlem Nocturne [08:05]
06. Lonely Woman [10:07]
07. Segue [06:23]
08. Sophisticated Lady [10:34]
 
Лог создания рипа
Exact Audio Copy V1.0 beta 1 from 15. November 2010
EAC extraction logfile from 27. September 2011, 17:44
Archie Shepp Joachim Kuhn / Wo!Man
Used drive : PLEXTOR DVDR PX-860A Adapter: 0 ID: 0
Read mode : Secure
Utilize accurate stream : Yes
Defeat audio cache : Yes
Make use of C2 pointers : No
Read offset correction : 96
Overread into Lead-In and Lead-Out : No
Fill up missing offset samples with silence : Yes
Delete leading and trailing silent blocks : No
Null samples used in CRC calculations : Yes
Used interface : Native Win32 interface for Win NT & 2000
Gap handling : Appended to previous track
Used output format : User Defined Encoder
Selected bitrate : 1024 kBit/s
Quality : High
Add ID3 tag : No
Command line compressor : C:\Program Files\Exact Audio Copy\Flac\flac.exe
Additional command line options : -8 -V -T "ARTIST=%a" -T "TITLE=%t" -T "ALBUM=%g" -T "DATE=%y" -T "TRACKNUMBER=%n" -T "TOTALTRACKS=%x" -T "GENRE=%m" -T "ALBUM ARTIST=%v" -T "ALBUMARTIST=%v" -T "COMMENT=EAC V1.0 beta 1, Secure Mode, Test & Copy, AccurateRip
TOC of the extracted CD
Track | Start | Length | Start sector | End sector
---------------------------------------------------------
1 | 0:00.00 | 9:51.64 | 0 | 44388
2 | 9:51.64 | 6:40.29 | 44389 | 74417
3 | 16:32.18 | 4:30.60 | 74418 | 94727
4 | 21:03.03 | 10:23.29 | 94728 | 141481
5 | 31:26.32 | 8:07.21 | 141482 | 178027
6 | 39:33.53 | 10:09.55 | 178028 | 223757
7 | 49:43.33 | 6:23.02 | 223758 | 252484
8 | 56:06.35 | 10:34.68 | 252485 | 300102
Track 1
Filename S:\DL\Archie Shepp Joachim Kuhn - Wo!Man (2011) [FLAC]\01 - Transmitting.wav
Pre-gap length 0:00:02.00
Peak level 100.0 %
Extraction speed 4.7 X
Track quality 99.9 %
Test CRC A1BC21E3
Copy CRC A1BC21E3
Track not present in AccurateRip database
Copy OK
Track 2
Filename S:\DL\Archie Shepp Joachim Kuhn - Wo!Man (2011) [FLAC]\02 - Nina.wav
Pre-gap length 0:00:01.70
Peak level 100.0 %
Extraction speed 5.8 X
Track quality 100.0 %
Test CRC 16B2BC37
Copy CRC 16B2BC37
Track not present in AccurateRip database
Copy OK
Track 3
Filename S:\DL\Archie Shepp Joachim Kuhn - Wo!Man (2011) [FLAC]\03 - Drivin' Miss Daisy.wav
Pre-gap length 0:00:01.70
Peak level 100.0 %
Extraction speed 6.0 X
Track quality 100.0 %
Test CRC 18247AD7
Copy CRC 18247AD7
Track not present in AccurateRip database
Copy OK
Track 4
Filename S:\DL\Archie Shepp Joachim Kuhn - Wo!Man (2011) [FLAC]\04 - Sketch final coda sax Monette.wav
Pre-gap length 0:00:01.70
Peak level 100.0 %
Extraction speed 7.1 X
Track quality 100.0 %
Test CRC 3B51A961
Copy CRC 3B51A961
Track not present in AccurateRip database
Copy OK
Track 5
Filename S:\DL\Archie Shepp Joachim Kuhn - Wo!Man (2011) [FLAC]\05 - Harlem Nocturne.wav
Pre-gap length 0:00:01.70
Peak level 100.0 %
Extraction speed 7.6 X
Track quality 100.0 %
Test CRC 0FA40857
Copy CRC 0FA40857
Track not present in AccurateRip database
Copy OK
Track 6
Filename S:\DL\Archie Shepp Joachim Kuhn - Wo!Man (2011) [FLAC]\06 - Lonely Woman.wav
Pre-gap length 0:00:01.70
Peak level 100.0 %
Extraction speed 8.3 X
Track quality 100.0 %
Test CRC 1DF09313
Copy CRC 1DF09313
Track not present in AccurateRip database
Copy OK
Track 7
Filename S:\DL\Archie Shepp Joachim Kuhn - Wo!Man (2011) [FLAC]\07 - Segue.wav
Pre-gap length 0:00:01.70
Peak level 100.0 %
Extraction speed 8.5 X
Track quality 100.0 %
Test CRC 549F4CF4
Copy CRC 549F4CF4
Track not present in AccurateRip database
Copy OK
Track 8
Filename S:\DL\Archie Shepp Joachim Kuhn - Wo!Man (2011) [FLAC]\08 - Sophisticated Lady.wav
Peak level 100.0 %
Extraction speed 8.7 X
Track quality 99.9 %
Test CRC 7D92CDA6
Copy CRC 7D92CDA6
Track not present in AccurateRip database
Copy OK
None of the tracks are present in the AccurateRip database
No errors occurred
End of status report
==== Log checksum FE2CEF3732A67502858C35B57B1FAB5FE31C218E32399C2F2E24676A5F19340E ====
 
Содержание индексной карты (.CUE)
REM GENRE Jazz
REM DATE 2011
REM DISCID 8D0FA108
REM COMMENT "ExactAudioCopy v1.0b1"
PERFORMER "Archie Shepp Joachim Kuhn"
TITLE "Wo!Man"
FILE "01 - Transmitting.wav" WAVE
TRACK 01 AUDIO
TITLE "Transmitting"
PERFORMER "Archie Shepp Joachim Kuhn"
INDEX 01 00:00:00
TRACK 02 AUDIO
TITLE "Nina"
PERFORMER "Archie Shepp Joachim Kuhn"
INDEX 00 09:49:69
FILE "02 - Nina.wav" WAVE
INDEX 01 00:00:00
TRACK 03 AUDIO
TITLE "Drivin' Miss Daisy"
PERFORMER "Archie Shepp Joachim Kuhn"
INDEX 00 06:38:34
FILE "03 - Drivin' Miss Daisy.wav" WAVE
INDEX 01 00:00:00
TRACK 04 AUDIO
TITLE "Sketch final coda sax Monette"
PERFORMER "Archie Shepp Joachim Kuhn"
INDEX 00 04:28:65
FILE "04 - Sketch final coda sax Monette.wav" WAVE
INDEX 01 00:00:00
TRACK 05 AUDIO
TITLE "Harlem Nocturne"
PERFORMER "Archie Shepp Joachim Kuhn"
INDEX 00 10:21:34
FILE "05 - Harlem Nocturne.wav" WAVE
INDEX 01 00:00:00
TRACK 06 AUDIO
TITLE "Lonely Woman"
PERFORMER "Archie Shepp Joachim Kuhn"
INDEX 00 08:05:26
FILE "06 - Lonely Woman.wav" WAVE
INDEX 01 00:00:00
TRACK 07 AUDIO
TITLE "Segue"
PERFORMER "Archie Shepp Joachim Kuhn"
INDEX 00 10:07:60
FILE "07 - Segue.wav" WAVE
INDEX 01 00:00:00
FILE "08 - Sophisticated Lady.wav" WAVE
TRACK 08 AUDIO
TITLE "Sophisticated Lady"
PERFORMER "Archie Shepp Joachim Kuhn"
INDEX 01 00:00:00
 
Состав
Joachim Kuhn (piano)
Archie Shepp (saxophone)
Any questions -> support@pro-jazz.com. По всем вопросам пишите -> support@pro-jazz.com
17:14
222
Нет комментариев. Ваш будет первым!