Вы используете незарегистрированную версию компонента "Вкладки"!

Поиск

(Free Jazz, Poetry, Avant-Garde Jazz) Positive Knowledge (Oluyemi Thomas, Ijeoma Thomas, Michael Bisio, Kenn Thomas) - Edgefest Edition - 2010, FLAC (tracks+.cue), lossless

(Free Jazz, Poetry, Avant-Garde Jazz) Positive Knowledge (Oluyemi Thomas, Ijeoma Thomas, Michael Bisio, Kenn Thomas) - Edgefest Edition - 2010, FLAC (tracks+.cue), lossless
Треклист:
Positive Knowledge / Edgefest Edition
Жанр: Free Jazz, Poetry, Avant-Garde Jazz
Страна-производитель диска: Poland
Год издания диска: 2010
Издатель (лейбл): Nottwo
Номер по каталогу: MW 835-2
Страна: USA
Аудиокодек: FLAC (*.flac)
Тип рипа: tracks+.cue
Битрейт аудио: lossless
Продолжительность: 1:07:07
Источник (релизер): CD
Наличие сканов в содержимом раздачи: да
Треклист:
01. Events AT the Edge (I) (6:01)
02. Events AT the Edge (II) (5:35)
03. Secrets of Preexistence (6:04)
04. Of the We (II) (7:36)
05. Tabernacle Revisit (7:16)
06. Moving of Energy (2:01)
07. Urban Lions (4:19)
08. Breathing Happens On It's Own (8:53)
09. Proofs (for Alan Silva) (5:19)
10. Justice Inside Injustice (9:53)
11. Soul Systems (4:11)
 
Лог создания рипа
Exact Audio Copy V1.0 beta 2 from 29. April 2011
EAC extraction logfile from 29. September 2011, 16:41
Oluyemi Thomas, Ijeomathomas, Michael Bisio,Kenn Thomas / Positive Knowledge Edgefest Edition
Used drive : Optiarc DVD RW AD-7240S Adapter: 2 ID: 0
Read mode : Secure
Utilize accurate stream : Yes
Defeat audio cache : Yes
Make use of C2 pointers : No
Read offset correction : 48
Overread into Lead-In and Lead-Out : No
Fill up missing offset samples with silence : Yes
Delete leading and trailing silent blocks : No
Null samples used in CRC calculations : Yes
Used interface : Native Win32 interface for Win NT & 2000
Gap handling : Appended to previous track
Used output format : User Defined Encoder
Selected bitrate : 768 kBit/s
Quality : High
Add ID3 tag : No
Command line compressor : C:\Program Files\Exact Audio Copy\FLAC\FLAC.EXE
Additional command line options : -6 -V -T "ARTIST=%artist%" -T "TITLE=%title%" -T "ALBUM=%albumtitle%" -T "DATE=%year%" -T "TRACKNUMBER=%tracknr%" -T "GENRE=%genre%" -T "COMMENT=%comment%" -T "BAND=%albuminterpret%" -T "COMPOSER=%composer%" %haslyrics%--ta
TOC of the extracted CD
Track | Start | Length | Start sector | End sector
---------------------------------------------------------
1 | 0:00.00 | 6:01.61 | 0 | 27135
2 | 6:01.61 | 5:34.74 | 27136 | 52259
3 | 11:36.60 | 6:03.65 | 52260 | 79549
4 | 17:40.50 | 7:35.47 | 79550 | 113721
5 | 25:16.22 | 7:15.58 | 113722 | 146404
6 | 32:32.05 | 2:00.39 | 146405 | 155443
7 | 34:32.44 | 4:19.03 | 155444 | 174871
8 | 38:51.47 | 8:52.44 | 174872 | 214815
9 | 47:44.16 | 5:19.34 | 214816 | 238774
10 | 53:03.50 | 9:53.11 | 238775 | 283260
11 | 62:56.61 | 4:11.01 | 283261 | 302086
Track 1
Filename C:\Positive Knowledge (2010) Edgefest Edition\01 Events At The Edge I.wav
Pre-gap length 0:00:02.00
Peak level 98.4 %
Extraction speed 2.5 X
Track quality 100.0 %
Test CRC 1C7BA856
Copy CRC 1C7BA856
Track not present in AccurateRip database
Copy OK
Track 2
Filename C:\Positive Knowledge (2010) Edgefest Edition\02 Events At The Edge Ii.wav
Peak level 93.3 %
Extraction speed 2.6 X
Track quality 99.9 %
Test CRC 1D1B87CA
Copy CRC 1D1B87CA
Track not present in AccurateRip database
Copy OK
Track 3
Filename C:\Positive Knowledge (2010) Edgefest Edition\03 Secrets Of Preexistence.wav
Peak level 98.4 %
Extraction speed 2.9 X
Track quality 99.9 %
Test CRC 071CCF32
Copy CRC 071CCF32
Track not present in AccurateRip database
Copy OK
Track 4
Filename C:\Positive Knowledge (2010) Edgefest Edition\04 Of The We Ii.wav
Peak level 98.4 %
Extraction speed 3.6 X
Track quality 100.0 %
Test CRC 8F6FACF9
Copy CRC 8F6FACF9
Track not present in AccurateRip database
Copy OK
Track 5
Filename C:\Positive Knowledge (2010) Edgefest Edition\05 Tabernacle Revisit.wav
Peak level 98.4 %
Extraction speed 3.9 X
Track quality 100.0 %
Test CRC A6720728
Copy CRC A6720728
Track not present in AccurateRip database
Copy OK
Track 6
Filename C:\Positive Knowledge (2010) Edgefest Edition\06 Moving Of Energy.wav
Peak level 98.4 %
Extraction speed 2.7 X
Track quality 99.9 %
Test CRC 2F1FF710
Copy CRC 2F1FF710
Track not present in AccurateRip database
Copy OK
Track 7
Filename C:\Positive Knowledge (2010) Edgefest Edition\07 Urban Lions.wav
Peak level 98.4 %
Extraction speed 4.0 X
Track quality 100.0 %
Test CRC 87FA8716
Copy CRC 87FA8716
Track not present in AccurateRip database
Copy OK
Track 8
Filename C:\Positive Knowledge (2010) Edgefest Edition\08 Breathing Happens On It's Own.wav
Peak level 98.4 %
Extraction speed 4.5 X
Track quality 100.0 %
Test CRC 343C3A1B
Copy CRC 343C3A1B
Track not present in AccurateRip database
Copy OK
Track 9
Filename C:\Positive Knowledge (2010) Edgefest Edition\09 Proofs (For Alan Silva).wav
Peak level 98.4 %
Extraction speed 4.6 X
Track quality 100.0 %
Test CRC 45E1B41E
Copy CRC 45E1B41E
Track not present in AccurateRip database
Copy OK
Track 10
Filename C:\Positive Knowledge (2010) Edgefest Edition\10 Justice Inside Injustice.wav
Peak level 100.0 %
Extraction speed 5.1 X
Track quality 100.0 %
Test CRC CF211442
Copy CRC CF211442
Track not present in AccurateRip database
Copy OK
Track 11
Filename C:\Positive Knowledge (2010) Edgefest Edition\11 Soul Systems.wav
Peak level 100.0 %
Extraction speed 4.4 X
Track quality 99.9 %
Test CRC 4F69A26F
Copy CRC 4F69A26F
Track not present in AccurateRip database
Copy OK
None of the tracks are present in the AccurateRip database
No errors occurred
End of status report
==== Log checksum E41C8CCEDFA079C518D7024ADE09712C59CDD5933AC74E8C9817C036BC114C61 ====
 
Содержание индексной карты (.CUE)
REM GENRE Jazz
REM DATE 2010
REM DISCID A80FBB0B
REM COMMENT "ExactAudioCopy v1.0b2"
PERFORMER "Oluyemi Thomas, Ijeomathomas, Michael Bisio,Kenn Thomas"
TITLE "Positive Knowledge Edgefest Edition"
FILE "01 Events At The Edge I.wav" WAVE
TRACK 01 AUDIO
TITLE "Events At The Edge I"
PERFORMER "Oluyemi Thomas, Ijeomathomas, Michael Bisio,Kenn Thomas"
INDEX 01 00:00:00
FILE "02 Events At The Edge Ii.wav" WAVE
TRACK 02 AUDIO
TITLE "Events At The Edge Ii"
PERFORMER "Oluyemi Thomas, Ijeomathomas, Michael Bisio,Kenn Thomas"
INDEX 01 00:00:00
FILE "03 Secrets Of Preexistence.wav" WAVE
TRACK 03 AUDIO
TITLE "Secrets Of Preexistence"
PERFORMER "Oluyemi Thomas, Ijeomathomas, Michael Bisio,Kenn Thomas"
INDEX 01 00:00:00
FILE "04 Of The We Ii.wav" WAVE
TRACK 04 AUDIO
TITLE "Of The We Ii"
PERFORMER "Oluyemi Thomas, Ijeomathomas, Michael Bisio,Kenn Thomas"
INDEX 01 00:00:00
FILE "05 Tabernacle Revisit.wav" WAVE
TRACK 05 AUDIO
TITLE "Tabernacle Revisit"
PERFORMER "Oluyemi Thomas, Ijeomathomas, Michael Bisio,Kenn Thomas"
INDEX 01 00:00:00
FILE "06 Moving Of Energy.wav" WAVE
TRACK 06 AUDIO
TITLE "Moving Of Energy"
PERFORMER "Oluyemi Thomas, Ijeomathomas, Michael Bisio,Kenn Thomas"
INDEX 01 00:00:00
FILE "07 Urban Lions.wav" WAVE
TRACK 07 AUDIO
TITLE "Urban Lions"
PERFORMER "Oluyemi Thomas, Ijeomathomas, Michael Bisio,Kenn Thomas"
INDEX 01 00:00:00
FILE "08 Breathing Happens On It's Own.wav" WAVE
TRACK 08 AUDIO
TITLE "Breathing Happens On It's Own"
PERFORMER "Oluyemi Thomas, Ijeomathomas, Michael Bisio,Kenn Thomas"
INDEX 01 00:00:00
FILE "09 Proofs (For Alan Silva).wav" WAVE
TRACK 09 AUDIO
TITLE "Proofs (For Alan Silva)"
PERFORMER "Oluyemi Thomas, Ijeomathomas, Michael Bisio,Kenn Thomas"
INDEX 01 00:00:00
FILE "10 Justice Inside Injustice.wav" WAVE
TRACK 10 AUDIO
TITLE "Justice Inside Injustice"
PERFORMER "Oluyemi Thomas, Ijeomathomas, Michael Bisio,Kenn Thomas"
INDEX 01 00:00:00
FILE "11 Soul Systems.wav" WAVE
TRACK 11 AUDIO
TITLE "Soul Systems"
PERFORMER "Oluyemi Thomas, Ijeomathomas, Michael Bisio,Kenn Thomas"
INDEX 01 00:00:00
 
Доп. информация
Reedist Oluyemi Thomas, bassist Michael Bisio and pianist Kenn Thomas with improvising vocalist and poet Ijeoma Thomas at the 2009 Edgefest in Ann Arbor, recording these fascinating and unusual tracks.
 
Об альбоме (сборнике)
(When) Oluyemi Thomas, the sage-like reedman from Oakland, California performs, his aim is to reach up towards the ceiling, to gauge the nature of the room, in terms of its acoustics and its human inhabitants. Although he moves through a broad range of instruments, including saxophones, musette, flute and various percussion pieces, it's the bass clarinet that occupies most of his concentration. "My main and great spirit guide on the bass clarinet has been, and still is, Eric Dolphy ," he says. "His tone is so sweet, poetic, meaningful, soulful and clear. Listening to Mr. Dolphy at first made me want to find my own vocabulary system as he did, but Eric showed me it can be done emphatically. Bass clarinet and saxophone, I love them both because they both speak and sing the ancient/modern language-tunes. But the bass clarinet has that floor-of-the-ocean tone that I really adore."
"No matter which performance context Thomas finds himself in, the overwhelming aura is one of invocatory ritual, in the tradition of Sun Ra, the Art Ensemble of Chicago and beyond. In his early days, Oluyemi was listening to a funkier form of jazz (this still remains so), but revelation came when the likes of Cecil Taylor, Pharoah Sanders , Archie Shepp and Ornette Coleman passed through the city." - Martin Longley, All About Jazz
 
Состав
Oluyemi Thomas - bass clarinet, musette, soprano, percussion
Ijeoma Thomas - voice, percussion
Michael Bisio - bass
Kenn Thomas - piano
По всем вопросам пишите личное сообщение пользователю M0p94ok.
17:13
204
Нет комментариев. Ваш будет первым!