Поиск

(Free Jazz, Avant-Garde Jazz, Fusion) Tisziji Munoz (w/ Dave Liebman, Cecil McBee, Rashied Ali) - Presence Of Joy (Samboga-Kaya) - 1999, FLAC (tracks+.cue), lossless

(Free Jazz, Avant-Garde Jazz, Fusion) Tisziji Munoz (w/ Dave Liebman, Cecil McBee, Rashied Ali) - Presence Of Joy (Samboga-Kaya) - 1999, FLAC (tracks+.cue), lossless
Треклист:
Tisziji Munoz (w/ Dave Liebman, Cecil McBee, Rashied Ali) / Presence Of Joy (Samboga-Kaya)
Жанр: Free Jazz, Avant-Garde Jazz, Fusion
Страна-производитель диска: US
Год издания: 1999
Издатель (лейбл): Anami Music
Номер по каталогу: AM0016
Страна: US
Аудиокодек: FLAC (*.flac)
Тип рипа: tracks+.cue
Битрейт аудио: lossless
Продолжительность: 71:29
Источник (релизер): свой фирменный диск
Наличие сканов в содержимом раздачи:
Треклист:
1. Happy Sadness 10:29
2. Presence Of Joy 18:55
3. Peace On Earth I 4:29
4. Jewel Of Enchantment 8:52
5. The Blue Pearl Of Tantra 16:36
6. Peace On Earth II 12:06
 
Лог создания рипа
Exact Audio Copy V1.0 beta 3 from 29. August 2011
EAC extraction logfile from 3. November 2013, 1:06
Tisziji Munoz / Presence Of Joy (Samboga-Kaya)
Used drive : PIONEER DVD-RW DVR-115D Adapter: 0 ID: 0
Read mode : Secure
Utilize accurate stream : Yes
Defeat audio cache : Yes
Make use of C2 pointers : No
Read offset correction : 48
Overread into Lead-In and Lead-Out : No
Fill up missing offset samples with silence : Yes
Delete leading and trailing silent blocks : No
Null samples used in CRC calculations : Yes
Used interface : Installed external ASPI interface
Gap handling : Appended to previous track
Used output format : User Defined Encoder
Selected bitrate : 896 kBit/s
Quality : High
Add ID3 tag : No
Command line compressor : C:\Program Files\Exact Audio Copy\FLAC\FLAC.EXE
Additional command line options : -6 -V -T "ARTIST=%artist%" -T "TITLE=%title%" -T "ALBUM=%albumtitle%" -T "DATE=%year%" -T "TRACKNUMBER=%tracknr%" -T "GENRE=%genre%" -T "COMMENT=%comment%" -T "BAND=%albuminterpret%" -T "COMPOSER=%composer%" %haslyrics%--tag-from-file=LYRICS="%lyricsfile%"%haslyrics% -T "DISCNUMBER=%cdnumber%" -T "TOTALDISCS=%totalcds%" -T "TOTALTRACKS=%numtracks%" %hascover%--picture="%coverfile%"%hascover% %source% -o %dest%
TOC of the extracted CD
Track | Start | Length | Start sector | End sector
---------------------------------------------------------
1 | 0:00.00 | 10:29.74 | 0 | 47248
2 | 10:29.74 | 18:55.04 | 47249 | 132377
3 | 29:25.03 | 4:29.43 | 132378 | 152595
4 | 33:54.46 | 8:52.15 | 152596 | 192510
5 | 42:46.61 | 16:36.10 | 192511 | 267220
6 | 59:22.71 | 12:06.19 | 267221 | 321689
Track 1
Filename D:\zzz\01 - Happy Sadness.wav
Pre-gap length 0:00:02.00
Peak level 98.2 %
Extraction speed 5.4 X
Track quality 100.0 %
Test CRC 597601C5
Copy CRC 597601C5
Track not present in AccurateRip database
Copy OK
Track 2
Filename D:\zzz\02 - Presence Of Joy.wav
Pre-gap length 0:00:02.43
Peak level 98.6 %
Extraction speed 6.9 X
Track quality 100.0 %
Test CRC 57B2CD80
Copy CRC 57B2CD80
Track not present in AccurateRip database
Copy OK
Track 3
Filename D:\zzz\03 - Peace On Earth I.wav
Pre-gap length 0:00:01.53
Peak level 97.6 %
Extraction speed 6.4 X
Track quality 99.9 %
Test CRC E682099D
Copy CRC E682099D
Track not present in AccurateRip database
Copy OK
Track 4
Filename D:\zzz\04 - Jewel Of Enchantment.wav
Pre-gap length 0:00:03.00
Peak level 99.2 %
Extraction speed 7.5 X
Track quality 99.9 %
Test CRC F6ADC1CD
Copy CRC F6ADC1CD
Track not present in AccurateRip database
Copy OK
Track 5
Filename D:\zzz\05 - The Blue Pearl Of Tantra.wav
Pre-gap length 0:00:03.02
Peak level 98.3 %
Extraction speed 9.0 X
Track quality 100.0 %
Test CRC 4935C3D9
Copy CRC 4935C3D9
Track not present in AccurateRip database
Copy OK
Track 6
Filename D:\zzz\06 - Peace On Earth II.wav
Pre-gap length 0:00:03.00
Peak level 98.1 %
Extraction speed 9.6 X
Track quality 100.0 %
Test CRC 208A84DB
Copy CRC 208A84DB
Track not present in AccurateRip database
Copy OK
None of the tracks are present in the AccurateRip database
No errors occurred
End of status report
==== Log checksum F14402922ECBE5F22B995DF9E405D86148E282A02FD94258B5C0F41829775D47 ====
 
Содержание индексной карты (.CUE)
REM GENRE "Avant-Garde Jazz"
REM DATE 1999
REM DISCID 5310C106
REM COMMENT "ExactAudioCopy v1.0b3"
PERFORMER "Tisziji Munoz"
TITLE "Presence Of Joy (Samboga-Kaya)"
FILE "01 - Happy Sadness.wav" WAVE
TRACK 01 AUDIO
TITLE "Happy Sadness"
PERFORMER "Tisziji Munoz"
INDEX 01 00:00:00
TRACK 02 AUDIO
TITLE "Presence Of Joy"
PERFORMER "Tisziji Munoz"
INDEX 00 10:27:31
FILE "02 - Presence Of Joy.wav" WAVE
INDEX 01 00:00:00
TRACK 03 AUDIO
TITLE "Peace On Earth I"
PERFORMER "Tisziji Munoz"
INDEX 00 18:53:26
FILE "03 - Peace On Earth I.wav" WAVE
INDEX 01 00:00:00
TRACK 04 AUDIO
TITLE "Jewel Of Enchantment"
PERFORMER "Tisziji Munoz"
INDEX 00 04:26:43
FILE "04 - Jewel Of Enchantment.wav" WAVE
INDEX 01 00:00:00
TRACK 05 AUDIO
TITLE "The Blue Pearl Of Tantra"
PERFORMER "Tisziji Munoz"
INDEX 00 08:49:13
FILE "05 - The Blue Pearl Of Tantra.wav" WAVE
INDEX 01 00:00:00
TRACK 06 AUDIO
TITLE "Peace On Earth II"
PERFORMER "Tisziji Munoz"
INDEX 00 16:33:10
FILE "06 - Peace On Earth II.wav" WAVE
INDEX 01 00:00:00
 
Лог проверки качества
d:\>d:\aucdtect -d/-m0 d:\zzz\*.wav
auCDtect: CD records authenticity detector, version 0.8.2
Copyright (c) 2004 Oleg Berngardt. All rights reserved.
Copyright (c) 2004 Alexander Djourik. All rights reserved.
------------------------------------------------------------
Processing file: [01. Happy Sadness.wav]
------------------------------------------------------------
This track looks like CDDA with probability 100%
------------------------------------------------------------
Processing file: [02. Presence Of Joy.wav]
------------------------------------------------------------
This track looks like CDDA with probability 100%
------------------------------------------------------------
Processing file: [03. Peace On Earth I.wav]
------------------------------------------------------------
This track looks like CDDA with probability 100%
------------------------------------------------------------
Processing file: [04. Jewel Of Enchantment.wav]
------------------------------------------------------------
This track looks like CDDA with probability 99%
------------------------------------------------------------
Processing file: [05. The Blue Pearl Of Tantra.wav]
------------------------------------------------------------
This track looks like CDDA with probability 100%
------------------------------------------------------------
Processing file: [06. Peace On Earth II.wav]
------------------------------------------------------------
This track looks like CDDA with probability 99%
------------------------------------------------------------
Final Conclusion:
------------------------------------------------------------
These tracks looks like CDDA with probability 100%
Доп. информация:
 
Album Info
Produced by Tisziji Munoz
Art direction by Tisziji Munoz
Graphic layout by Mike Munoz
Photos by Nancy Munoz
Recorded on July 22, 1999 at Rashied Ali's Survival Studios in NYC
Mixed and mastered by Mike Munoz
Assistant engineers: Larry Voelker, Nancy and Rebazar Munoz
"It’s great playing with Tisziji because he is right in the middle of the music. Tisziji goes right to the center of the music bringing everybody with him. He seizes the right moment. He won’t play unless it’s right." —Dave Liebman
"Tisziji’s music creates a good feeling. I never really get a chance to play like this. This kind of music is not played very much. It’s great that Tisziji is putting it out there like this. He is giving people a chance to hear music which they seldom get a chance to hear. Check this out." —Rashied Ali
"Playing with Tisziji Muñoz on Presence of Joy was like jumping out of a plane without a parachute, or like flying the trapeze without a net. This music sounds different every time you listen to it." —Don Pate
"Tisziji's music is more directed towards the inner senses and the deepest feelings. His music is unhampered by technical things, you know, chords, time, structure, whatever. This is direct expression. I am always regenerated, refreshed, replenished and inspired by playing his music. I rarely get a chance to play this way. This music energizes me. I rarely get the chance to play with so much freedom." —Bernie Senensky
 
Состав
Tisziji Munoz: guitar, synth & bells
Dave Liebman: tenor/soprano sax
Bernie Senensky: piano
Don Pate & Cecil McBee: bass's
Rashied Ali: drums
По всем вопросам пишите личное сообщение пользователю M0p94ok.
19:59
224
Нет комментариев. Ваш будет первым!