Вы используете незарегистрированную версию компонента "Вкладки"!

Поиск

(Avant-Garde, Free Jazz, Delmark Records) Kahil El’Zabar’s Infinity Orchestra (with Ernest Dawkins and Joseph Bowie) - Transmigration - 2007, FLAC (tracks+.cue), lossless

(Avant-Garde, Free Jazz, Delmark Records) Kahil El’Zabar’s Infinity Orchestra (with Ernest Dawkins and Joseph Bowie) - Transmigration - 2007, FLAC (tracks+.cue), lossless
Треклист:
Kahil El’Zabar’s Infinity Orchestra / Transmigration
Жанр: Avant-Garde, Free Jazz, Delmark Records
Страна-производитель диска: U.S.A.
Год издания: 2007
Издатель (лейбл): Delmark Records
Номер по каталогу: DE 576
Аудиокодек: FLAC (*.flac)
Тип рипа: tracks+.cue
Битрейт аудио: lossless
Продолжительность: 1:09:12
Источник (релизер): я
Наличие сканов в содержимом раздачи: да
Треклист:
1. Soul to Groove 5:19
2. Speaking in Tongues 24:42
3. Transmigration 7:45
4. Nu Art Claiming Earth 15:05
5. Return of the Lost Tribe 16:20
Compositions by Kahil El’Zabar.
Arrangements by Robert Irving III and Kahil El’Zabar.
Recorded April 29, 30, 2005, National Theater of Bordeaux, Aquitaine, France.
Kahil El’Zabar – Leader, Percussion
Ernest Dawkins – Alto Saxophone, Percussion
Joseph Bowie – Trombone, Percussion
and the Infinity Orchestra
 
Лог создания рипа
Exact Audio Copy V1.0 beta 3 from 29. August 2011
EAC extraction logfile from 29. October 2013, 21:33
Kahil El'Zabar's Infinity Orchestra / Transmigration
Used drive : SlimtypeeNAU508 5 Adapter: 1 ID: 0
Read mode : Secure
Utilize accurate stream : Yes
Defeat audio cache : Yes
Make use of C2 pointers : No
Read offset correction : 6
Overread into Lead-In and Lead-Out : No
Fill up missing offset samples with silence : Yes
Delete leading and trailing silent blocks : No
Null samples used in CRC calculations : Yes
Used interface : Native Win32 interface for Win NT & 2000
Gap handling : Appended to previous track
Used output format : User Defined Encoder
Selected bitrate : 768 kBit/s
Quality : High
Add ID3 tag : No
Command line compressor : C:\Program Files (x86)\Exact Audio Copy\Flac\flac.exe
Additional command line options : -8 -V -T "ARTIST=%artist%" -T "TITLE=%title%" -T "ALBUM=%albumtitle%" -T "DATE=%year%" -T "TRACKNUMBER=%tracknr%" -T "GENRE=%genre%" -T "PERFORMER=%albuminterpret%" -T "COMPOSER=%composer%" %haslyrics%--tag-from-file=LYRICS="%lyricsfile%"%haslyrics% -T "ALBUMARTIST=%albumartist%" -T "DISCNUMBER=%cdnumber%" -T "TOTALDISCS=%totalcds%" -T "TOTALTRACKS=%numtracks%" -T "COMMENT=%comment%" %source% -o %dest%
TOC of the extracted CD
Track | Start | Length | Start sector | End sector
---------------------------------------------------------
1 | 0:00.00 | 5:19.01 | 0 | 23925
2 | 5:19.01 | 24:42.29 | 23926 | 135104
3 | 30:01.30 | 7:44.43 | 135105 | 169947
4 | 37:45.73 | 15:05.32 | 169948 | 237854
5 | 52:51.30 | 16:20.10 | 237855 | 311364
Track 1
Filename C:\EAC rips\01 - Soul to Groove.wav
Pre-gap length 0:00:02.00
Peak level 98.8 %
Extraction speed 2.2 X
Track quality 100.0 %
Test CRC BFD8FC9C
Copy CRC BFD8FC9C
Accurately ripped (confidence 1) [3C94E650] (AR v1)
Copy OK
Track 2
Filename C:\EAC rips\02 - Speaking in Tongues.wav
Peak level 98.8 %
Extraction speed 3.0 X
Track quality 99.9 %
Test CRC B278A492
Copy CRC B278A492
Accurately ripped (confidence 1) [B279AA03] (AR v1)
Copy OK
Track 3
Filename C:\EAC rips\03 - Transmigration.wav
Peak level 98.8 %
Extraction speed 3.7 X
Track quality 100.0 %
Test CRC 21F1755A
Copy CRC 21F1755A
Accurately ripped (confidence 1) [275E32F9] (AR v1)
Copy OK
Track 4
Filename C:\EAC rips\04 - Nu Art Claiming Earth.wav
Peak level 98.8 %
Extraction speed 4.2 X
Track quality 100.0 %
Test CRC EC9608E2
Copy CRC EC9608E2
Accurately ripped (confidence 1) [1C7AA5CD] (AR v1)
Copy OK
Track 5
Filename C:\EAC rips\05 - Return of the Lost Tribe.wav
Peak level 98.8 %
Extraction speed 4.7 X
Track quality 100.0 %
Test CRC 76CAEB80
Copy CRC 76CAEB80
Accurately ripped (confidence 1) [F3277A32] (AR v1)
Copy OK
All tracks accurately ripped
No errors occurred
End of status report
---- CUETools DB Plugin V2.1.4
[CTDB TOCID: ocvACs7QRyoax5xi35t.CnnMrKg-] disk not present in database
Submit result: La demande a été abandonnée : La demande a été annulée.
==== Log checksum CEFFF1F99E690F460F744DFD7C383FF23141354D7E4B1800A6945FD59EF52F45 ====
 
Содержание индексной карты (.CUE)
REM GENRE Jazz
REM DATE 2007
REM DISCID 33103705
REM COMMENT "ExactAudioCopy v1.0b3"
PERFORMER "Kahil El'Zabar's Infinity Orchestra"
TITLE "Transmigration"
FILE "01 - Soul to Groove.wav" WAVE
TRACK 01 AUDIO
TITLE "Soul to Groove"
PERFORMER "Kahil El'Zabar's Infinity Orchestra"
ISRC US4B90757601
FLAGS DCP
INDEX 01 00:00:00
FILE "02 - Speaking in Tongues.wav" WAVE
TRACK 02 AUDIO
TITLE "Speaking in Tongues"
PERFORMER "Kahil El'Zabar's Infinity Orchestra"
ISRC US4B90757602
FLAGS DCP
INDEX 01 00:00:00
FILE "03 - Transmigration.wav" WAVE
TRACK 03 AUDIO
TITLE "Transmigration"
PERFORMER "Kahil El'Zabar's Infinity Orchestra"
ISRC US4B90757603
FLAGS DCP
INDEX 01 00:00:00
FILE "04 - Nu Art Claiming Earth.wav" WAVE
TRACK 04 AUDIO
TITLE "Nu Art Claiming Earth"
PERFORMER "Kahil El'Zabar's Infinity Orchestra"
ISRC US4B90757604
FLAGS DCP
INDEX 01 00:00:00
FILE "05 - Return of the Lost Tribe.wav" WAVE
TRACK 05 AUDIO
TITLE "Return of the Lost Tribe"
PERFORMER "Kahil El'Zabar's Infinity Orchestra"
ISRC US4B90757605
FLAGS DCP
INDEX 01 00:00:00
 
Состав
The Infinity Orchestra:
Illyes Ferfera – Alto Saxophone
Grat Martinez – Baritone Saxophone
Arnaud Rouanet – Tenor Saxophone
Marc Closier – Tenor Saxophone
Karlis Vanags – Saxophone
Noris Kolmanis – Saxophone
Benoît Berthe – Saxophone
Fabien Deyts – Trumpet
Yann Grillon – Trumpet
Piero Pepin – Trumpet
Vincent Faugere – Trumpet
Dominique Darrouzet – Trumpet
Jean Dousteyssier – Clarinet
Christian Patzer – Flute
Jérémi Ortal – Trombone
Guillaume Ballin – Trombone
Guillaume Pique – Trombone
Clément Billardello – Guitar
Xavier Corpice – Guitar
Nathalie Gaucher – Vocal
Taro Ochiai – Vocal
Bindi Mahamat – Vocal Rap
Rémi Bernis – Vocal Rap
Stéphane Castanet – DJ
Nicolas Perrin – DJ Turntablist
Olivier Soubles – Piano
Marianne Thiebaut – Dembe
Boudji Abasse – Dejembe
Manue Peran – Djembe
Jonathan Verbaere – Djembe
Yacouba Silla – Djembe, Balafon
Yvain Chambard – Balafon, Percussion
Pascale Martinez – Percussion
Estelle Renauld – Percussion
Hervé Mignon – Electric Bass
Xavier Hayet – Acoustic Bass
Philippe Gaubert – Drums
Antonin Mallaret – Drums
Yoann Scheidt – Drums
По всем вопросам пишите личное сообщение пользователю M0p94ok.
20:00
174
Нет комментариев. Ваш будет первым!