Вы используете незарегистрированную версию компонента "Вкладки"!

Поиск

(Free Jazz, Avant-Garde Jazz) Frank Lowe Quintet - Live from Soundscape - 1994, FLAC (tracks+.cue), lossless

(Free Jazz, Avant-Garde Jazz) Frank Lowe Quintet - Live from Soundscape - 1994, FLAC (tracks+.cue), lossless
Треклист:
Frank Lowe Quintet - Live from Soundscape
Жанр: Free Jazz, Avant-Garde Jazz
Страна-производитель диска: Japan
Год издания диска: 1994
Издатель (лейбл): DIW Records
Номер по каталогу: DIW-399
Аудиокодек: FLAC (*.flac)
Тип рипа: tracks+.cue
Битрейт аудио: lossless
Продолжительность: 1:08:19
Источник (релизер): собственный рип с оригинального диска.
Наличие сканов в содержимом раздачи: да
Треклист:
01. Be Prepared (Lowe) 14:56
02. Close to the Soul (Lowe) 18:19
03. Exotic Heartbreak (Lowe) 22:35
04. Face to Face (Lowe) 12:18
 
Лог создания рипа
Exact Audio Copy V0.99 prebeta 5 from 4. May 2009
EAC extraction logfile from 13. June 2011, 14:22
Frank Lowe Quintet / Live from Soundscape
Used drive : TSSTcorpCDDVDW SH-S222A Adapter: 1 ID: 0
Read mode : Secure
Utilize accurate stream : Yes
Defeat audio cache : Yes
Make use of C2 pointers : No
Read offset correction : 6
Overread into Lead-In and Lead-Out : No
Fill up missing offset samples with silence : Yes
Delete leading and trailing silent blocks : No
Null samples used in CRC calculations : Yes
Used interface : Installed external ASPI interface
Gap handling : Appended to previous track
Used output format : User Defined Encoder
Selected bitrate : 768 kBit/s
Quality : High
Add ID3 tag : No
Command line compressor : C:\Tool\Compress\FLAC\flac.exe
Additional command line options : -8 -V -T "ARTIST=%a" -T "TITLE=%t" -T "ALBUM=%g" -T "DATE=%y" -T "TRACKNUMBER=%n" -T "TOTALTRACKS=%x" -T "GENRE=%m" -T "ALBUM ARTIST=%v" -T "COMMENT=EAC V0.99 prebeta 5, Secure Mode, Test & Copy, AccurateRip, FLAC -8" %s
TOC of the extracted CD
Track | Start | Length | Start sector | End sector
---------------------------------------------------------
1 | 0:00.00 | 15:00.02 | 0 | 67501
2 | 15:00.02 | 18:22.55 | 67502 | 150206
3 | 33:22.57 | 22:39.03 | 150207 | 252134
4 | 56:01.60 | 12:18.05 | 252135 | 307489
Track 1
Filename C:\! UPLOAD\Frank Lowe Quintet - Live from Soundscape (1994) [FLAC] {DIW}\01 - Be Prepared.wav
Pre-gap length 0:00:02.00
Peak level 100.0 %
Track quality 100.0 %
Test CRC 216814CB
Copy CRC 216814CB
Track not present in AccurateRip database
Copy OK
Track 2
Filename C:\! UPLOAD\Frank Lowe Quintet - Live from Soundscape (1994) [FLAC] {DIW}\02 - Close to the Soul.wav
Pre-gap length 0:00:02.13
Peak level 62.4 %
Track quality 100.0 %
Test CRC 4922785D
Copy CRC 4922785D
Track not present in AccurateRip database
Copy OK
Track 3
Filename C:\! UPLOAD\Frank Lowe Quintet - Live from Soundscape (1994) [FLAC] {DIW}\03 - Exotic Heartbreak.wav
Pre-gap length 0:00:02.00
Peak level 100.0 %
Track quality 100.0 %
Test CRC 3A829A6C
Copy CRC 3A829A6C
Track not present in AccurateRip database
Copy OK
Track 4
Filename C:\! UPLOAD\Frank Lowe Quintet - Live from Soundscape (1994) [FLAC] {DIW}\04 - Face to Face.wav
Pre-gap length 0:00:03.44
Peak level 61.2 %
Track quality 100.0 %
Test CRC 13D1C822
Copy CRC 13D1C822
Track not present in AccurateRip database
Copy OK
None of the tracks are present in the AccurateRip database
No errors occurred
End of status report
 
Содержание индексной карты (.CUE)
REM GENRE "Free Jazz"
REM DATE 1994
REM DISCID 22100304
REM COMMENT "ExactAudioCopy v0.99pb5"
PERFORMER "Frank Lowe Quintet"
TITLE "Live from Soundscape"
FILE "01 - Be Prepared.wav" WAVE
TRACK 01 AUDIO
TITLE "Be Prepared"
PERFORMER "Frank Lowe Quintet"
INDEX 01 00:00:00
TRACK 02 AUDIO
TITLE "Close to the Soul"
PERFORMER "Frank Lowe Quintet"
INDEX 00 14:57:67
FILE "02 - Close to the Soul.wav" WAVE
INDEX 01 00:00:00
TRACK 03 AUDIO
TITLE "Exotic Heartbreak"
PERFORMER "Frank Lowe Quintet"
INDEX 00 18:20:55
FILE "03 - Exotic Heartbreak.wav" WAVE
INDEX 01 00:00:00
TRACK 04 AUDIO
TITLE "Face to Face"
PERFORMER "Frank Lowe Quintet"
INDEX 00 22:35:45
FILE "04 - Face to Face.wav" WAVE
INDEX 01 00:00:00
Доп. информация:
Recorded live at Soundscape, NYC on February 19, 1982.
Premastered at Harvestworks/Studio Pass, NYC.
 
Об альбоме (сборнике) by Thom Jurek
Recorded in a Soundscape session in 1994, the criminally underrated saxophonist Frank Lowe brought an all-star band with him to literally wipe out the audience with his mélange of blues, rootsy R&B, free jazz, and gut bucket funk. With Amina Claudine Myers on piano, Wilbur Morris on bass, Butch Morris on cornet, and Tim Pleasant on drums, this is the record Lowe has been dreaming to make all of his life. Featuring four of Lowe's more well-known compositions, each stretched to its limits because of the diverse talents of his musicians, Lowe has the foundation here to take his deep blues explorations into the realm of gospel, modal music, and even early American classical music à la the works of Copland, Bernstein, and Stephen Foster for reasons known only to him. The most striking work here is "Exotic Heartbreak," which begins with a four-bar blues groove, slips into its muddy stride deep and wide, and allows Lowe to investigate the underside of that music's tonal colors and harmony, all the while keeping the framework together. Butch Morris punctuates every line as if to remind all the players where this music comes from, while Myers begins to unravel it from the inside, stitching chromatic patterns in counterpoint until she transforms melody and harmonic intervals to resemble a droning, open piece of early Americana and European folk song forms. As Lowe and Morris begin to take their in-the-pocket funkiness apart, exchanging arpeggiated glances of counterpoint along the way, it becomes obvious the listener has entered the musical universe Lowe always talks about, the one whose language cannot discuss boundaries because it acknowledges none. By the time the blues return at the end of nearly 23 minutes, Lowe has the band in full swinging dance form, enlarged by the experience of having drifted into new territory, and deeper in the foundations of the root tongue than ever before: a modern jazz classic.
 
Состав
Frank Lowe - tenor sax
Lawrence Butch Morris - cornet
Amina Claudine Myers - piano
Wilber Morris - bass
Tim Pleasant - drums
Any questions -> support@pro-jazz.com. По всем вопросам пишите -> support@pro-jazz.com
13:42
166
Нет комментариев. Ваш будет первым!