Вы используете незарегистрированную версию компонента "Вкладки"!

Поиск

(Free Improvisation) Rene Bottlang Quintet and Phil Minton - Round About Boby (Hommage a Boby Lapointe) - 1994, FLAC (tracks+.cue), lossless

Треклист:
Rene Bottlang Quintet and Phil Minton - Round About Boby (Hommage a Boby Lapointe)
Жанр: Free Improvisation
Страна-производитель диска: Switzerland
Год издания диска: 1994
Издатель (лейбл): Plainisphare
Номер по каталогу: PL 1267-91/1994
Аудиокодек: FLAC (*.flac)
Тип рипа: tracks+.cue
Битрейт аудио: lossless
Продолжительность: 1:14:23
Источник (релизер): собственный рип с оригинального диска.
Наличие сканов в содержимом раздачи: да
Треклист:
1. Ta Katie T'a Quitté 13:07
2. Marcelle 10:57
3. Le Poisson Fa 10:34
4. Petit Homme Qui Vit D'Espoir 4:59
5. Embrouille Minet 6:58
6. Insomnie 10:14
7. Aragon Et Castille 10:23
8. La Maman Des Poissons 6:42
 
Лог создания рипа
Exact Audio Copy V0.99 prebeta 5 from 4. May 2009
EAC extraction logfile from 14. June 2011, 9:48
Rene Bottlang Quintet / Round About Boby
Used drive : TSSTcorpCDDVDW SH-S222A Adapter: 1 ID: 0
Read mode : Secure
Utilize accurate stream : Yes
Defeat audio cache : Yes
Make use of C2 pointers : No
Read offset correction : 6
Overread into Lead-In and Lead-Out : No
Fill up missing offset samples with silence : Yes
Delete leading and trailing silent blocks : No
Null samples used in CRC calculations : Yes
Used interface : Installed external ASPI interface
Gap handling : Appended to previous track
Used output format : User Defined Encoder
Selected bitrate : 768 kBit/s
Quality : High
Add ID3 tag : No
Command line compressor : C:\Tool\Compress\FLAC\flac.exe
Additional command line options : -8 -V -T "ARTIST=%a" -T "TITLE=%t" -T "ALBUM=%g" -T "DATE=%y" -T "TRACKNUMBER=%n" -T "TOTALTRACKS=%x" -T "GENRE=%m" -T "ALBUM ARTIST=%v" -T "COMMENT=EAC V0.99 prebeta 5, Secure Mode, Test & Copy, AccurateRip, FLAC -8" %s
TOC of the extracted CD
Track | Start | Length | Start sector | End sector
---------------------------------------------------------
1 | 0:00.00 | 13:12.22 | 0 | 59421
2 | 13:12.22 | 11:01.25 | 59422 | 109021
3 | 24:13.47 | 10:39.65 | 109022 | 157011
4 | 34:53.37 | 5:03.05 | 157012 | 179741
5 | 39:56.42 | 7:02.68 | 179742 | 211459
6 | 46:59.35 | 10:17.47 | 211460 | 257781
7 | 57:17.07 | 10:25.23 | 257782 | 304679
8 | 67:42.30 | 6:41.57 | 304680 | 334811
Track 1
Filename C:\! UPLOAD\Rene Bottlang Quintet - Round About Boby (1992) [FLAC] {Plainisphare}\01 - Ta Katie t'a quitte.wav
Pre-gap length 0:00:02.00
Peak level 95.2 %
Track quality 99.9 %
Test CRC A7E84281
Copy CRC A7E84281
Track not present in AccurateRip database
Copy OK
Track 2
Filename C:\! UPLOAD\Rene Bottlang Quintet - Round About Boby (1992) [FLAC] {Plainisphare}\02 - Marcelle.wav
Pre-gap length 0:00:04.62
Peak level 90.0 %
Track quality 100.0 %
Test CRC DE10E3FB
Copy CRC DE10E3FB
Track not present in AccurateRip database
Copy OK
Track 3
Filename C:\! UPLOAD\Rene Bottlang Quintet - Round About Boby (1992) [FLAC] {Plainisphare}\03 - Le poisson Fa.wav
Pre-gap length 0:00:03.69
Peak level 90.6 %
Track quality 99.9 %
Test CRC FDD01A25
Copy CRC FDD01A25
Track not present in AccurateRip database
Copy OK
Track 4
Filename C:\! UPLOAD\Rene Bottlang Quintet - Round About Boby (1992) [FLAC] {Plainisphare}\04 - Petit homme qui vit d'espoir.wav
Pre-gap length 0:00:05.73
Peak level 91.8 %
Track quality 100.0 %
Test CRC 06CFAB9D
Copy CRC 06CFAB9D
Track not present in AccurateRip database
Copy OK
Track 5
Filename C:\! UPLOAD\Rene Bottlang Quintet - Round About Boby (1992) [FLAC] {Plainisphare}\05 - Embrouille minet.wav
Pre-gap length 0:00:03.82
Peak level 90.0 %
Track quality 100.0 %
Test CRC CBA12225
Copy CRC CBA12225
Track not present in AccurateRip database
Copy OK
Track 6
Filename C:\! UPLOAD\Rene Bottlang Quintet - Round About Boby (1992) [FLAC] {Plainisphare}\06 - Insomnie.wav
Pre-gap length 0:00:04.44
Peak level 87.8 %
Track quality 99.9 %
Test CRC 9ECCDDD2
Copy CRC 9ECCDDD2
Track not present in AccurateRip database
Copy OK
Track 7
Filename C:\! UPLOAD\Rene Bottlang Quintet - Round About Boby (1992) [FLAC] {Plainisphare}\07 - Aragon et castille.wav
Pre-gap length 0:00:03.53
Peak level 90.5 %
Track quality 100.0 %
Test CRC 4580F7F2
Copy CRC 4580F7F2
Track not present in AccurateRip database
Copy OK
Track 8
Filename C:\! UPLOAD\Rene Bottlang Quintet - Round About Boby (1992) [FLAC] {Plainisphare}\08 - La maman des poissons.wav
Pre-gap length 0:00:02.24
Peak level 94.7 %
Track quality 100.0 %
Test CRC 0C24AF1E
Copy CRC 0C24AF1E
Track not present in AccurateRip database
Copy OK
None of the tracks are present in the AccurateRip database
No errors occurred
End of status report
 
Содержание индексной карты (.CUE)
REM GENRE Jazz
REM DATE 1994
REM DISCID 79117008
REM COMMENT "ExactAudioCopy v0.99pb5"
CATALOG 0000000000000
PERFORMER "Rene Bottlang Quintet"
TITLE "Round About Boby"
FILE "01 - Ta Katie t'a quitte.wav" WAVE
TRACK 01 AUDIO
TITLE "Ta Katie t'a quitte"
PERFORMER "Rene Bottlang Quintet"
INDEX 01 00:00:00
TRACK 02 AUDIO
TITLE "Marcelle"
PERFORMER "Rene Bottlang Quintet"
INDEX 00 13:07:50
FILE "02 - Marcelle.wav" WAVE
INDEX 01 00:00:00
TRACK 03 AUDIO
TITLE "Le poisson Fa"
PERFORMER "Rene Bottlang Quintet"
INDEX 00 10:57:48
FILE "03 - Le poisson Fa.wav" WAVE
INDEX 01 00:00:00
TRACK 04 AUDIO
TITLE "Petit homme qui vit d'espoir"
PERFORMER "Rene Bottlang Quintet"
INDEX 00 10:34:10
FILE "04 - Petit homme qui vit d'espoir.wav" WAVE
INDEX 01 00:00:00
TRACK 05 AUDIO
TITLE "Embrouille minet"
PERFORMER "Rene Bottlang Quintet"
INDEX 00 04:59:18
FILE "05 - Embrouille minet.wav" WAVE
INDEX 01 00:00:00
TRACK 06 AUDIO
TITLE "Insomnie"
PERFORMER "Rene Bottlang Quintet"
INDEX 00 06:58:35
FILE "06 - Insomnie.wav" WAVE
INDEX 01 00:00:00
TRACK 07 AUDIO
TITLE "Aragon et castille"
PERFORMER "Rene Bottlang Quintet"
INDEX 00 10:14:07
FILE "07 - Aragon et castille.wav" WAVE
INDEX 01 00:00:00
TRACK 08 AUDIO
TITLE "La maman des poissons"
PERFORMER "Rene Bottlang Quintet"
INDEX 00 10:23:05
FILE "08 - La maman des poissons.wav" WAVE
INDEX 01 00:00:00
Доп. информация:
Recorded April 1994, Théatre du Chêne Noir, Jazz Club de l’AJMI, Avignon.
 
Об исполнителе (группе)
Robert (Boby) Lapointe (16 April 1922 – 29 June 1972) was a French singer, noted for his humorous texts, alliterations[1] and plays on words.
He was born in Pézenas, in the Hérault département of France. A brilliant scholar, he prepared for the entrance exam to the Centrale (engineering school) and Sup-Aero at Montpellier, but was conscripted into the Youth Building Projects in 1942 and sent to Germany in 1943 for compulsory work service. He escaped the same year, and found work as a diver in La Ciotat, a suburb of Marseilles, in 1944.
In 1946, he married Colette Maclaud. They had two children, Ticha (born 1948) and Jacky (1950).
His first published work, Les douze chants d'un imbecile, appeared in 1951. He moved to Paris and opened a fashion and baby clothes shop, still writing and producing plays. Later, he switched to being a fitter of TV aerials and began singing.
His fame grew when the actor Bourvil sang Lapointe's song Aragon et Castille in the 1954 film Poisson d'avril. In 1960, film director François Truffaut offered him a part in Tirez sur le Pianiste in which he sang Framboise, accompanied by Charles Aznavour on piano. This marked the start of a career that saw Lapointe perform at major venues throughout France. His joyful character led him to build friendships with the likes of Anne Sylvestre, Raymond Devos, Jacques Brel and Georges Brassens.
Lapointe was also a mathematician, and developed the bi-bi-binary system (also known as the bibi system) in 1971.
 
Состав
René Bottlang - p, voc
Jean Querlier - as
Phil Minton - voc
Claude Tchamitchian - bass
Youval Micemacher - perc
Any questions -> support@pro-jazz.com. По всем вопросам пишите -> support@pro-jazz.com
13:43
200
Нет комментариев. Ваш будет первым!