Вы используете незарегистрированную версию компонента "Вкладки"!

Поиск

(Free Improvisation) HUBBUB (Jean-Luc Guionnet, Frederic Blondy, Bertrand Denzler, Jean-Sebastien Marriage, Edward Perraud) - Hoop Whoop - 2003, FLAC (tracks+.cue), lossless

Треклист:
HUBBUB / Hoop Whoop
Жанр: Free Improvisation
Страна-производитель диска: UK
Год издания диска: 2003
Издатель (лейбл): Matchless Recordings
Номер по каталогу: MRCD53
Аудиокодек: FLAC (*.flac)
Тип рипа: tracks+.cue
Битрейт аудио: lossless
Продолжительность: 53:01
Источник (релизер): what.cd (bemsha)
Наличие сканов в содержимом раздачи: нет
Треклист:
1 Part I 14:45
2 Part II 16:58
3 Part III 14:43
4 Part IV 6:32
 
Лог создания рипа
Exact Audio Copy V0.99 prebeta 5 from 4. May 2009
EAC extraction logfile from 15. August 2009, 14:17
Hubbub / Hoop Whoop
Used drive : Optiarc DVD RW AD-7170S Adapter: 5 ID: 0
Read mode : Secure
Utilize accurate stream : Yes
Defeat audio cache : Yes
Make use of C2 pointers : No
Read offset correction : 48
Overread into Lead-In and Lead-Out : No
Fill up missing offset samples with silence : Yes
Delete leading and trailing silent blocks : No
Null samples used in CRC calculations : Yes
Used interface : Installed external ASPI interface
Gap handling : Appended to previous track
Used output format : User Defined Encoder
Selected bitrate : 1024 kBit/s
Quality : High
Add ID3 tag : No
Command line compressor : C:\Program Files\FLAC\flac.exe
Additional command line options : -8 -V -T "ARTIST=%a" -T "TITLE=%t" -T "ALBUM=%g" -T "DATE=%y" -T "TRACKNUMBER=%n" -T "GENRE=%m" -T "COMMENT=EAC FLAC -8" %s
TOC of the extracted CD
Track | Start | Length | Start sector | End sector
---------------------------------------------------------
1 | 0:00.32 | 14:45.18 | 32 | 66424
2 | 14:45.50 | 16:57.67 | 66425 | 142766
3 | 31:43.42 | 14:42.73 | 142767 | 208989
4 | 46:26.40 | 6:35.02 | 208990 | 238616
Track 1
Filename I:\!Alexander\Hubbub - Hoop Whoop (2003) [FLAC] {Matchless MRCD53}\01 - part I.wav
Pre-gap length 0:00:02.42
Peak level 100.0 %
Track quality 100.0 %
Test CRC 904F52BA
Copy CRC 904F52BA
Track not present in AccurateRip database
Copy OK
Track 2
Filename I:\!Alexander\Hubbub - Hoop Whoop (2003) [FLAC] {Matchless MRCD53}\02 - part II.wav
Peak level 100.0 %
Track quality 100.0 %
Test CRC 57B3A675
Copy CRC 57B3A675
Track not present in AccurateRip database
Copy OK
Track 3
Filename I:\!Alexander\Hubbub - Hoop Whoop (2003) [FLAC] {Matchless MRCD53}\03 - part III.wav
Peak level 100.0 %
Track quality 99.9 %
Test CRC 1AC65400
Copy CRC 1AC65400
Track not present in AccurateRip database
Copy OK
Track 4
Filename I:\!Alexander\Hubbub - Hoop Whoop (2003) [FLAC] {Matchless MRCD53}\04 - part IV.wav
Peak level 100.0 %
Track quality 100.0 %
Test CRC FD179888
Copy CRC FD179888
Track not present in AccurateRip database
Copy OK
None of the tracks are present in the AccurateRip database
No errors occurred
End of status report
 
Содержание индексной карты (.CUE)
REM GENRE Avantgarde
REM DATE 2003
REM DISCID 410C6D04
REM COMMENT "ExactAudioCopy v0.99pb5"
PERFORMER "Hubbub"
TITLE "Hoop Whoop"
FILE "01 - part I.wav" WAVE
TRACK 01 AUDIO
TITLE "part I"
PERFORMER "Hubbub"
PREGAP 00:00:32
INDEX 01 00:00:00
FILE "02 - part II.wav" WAVE
TRACK 02 AUDIO
TITLE "part II"
PERFORMER "Hubbub"
INDEX 01 00:00:00
FILE "03 - part III.wav" WAVE
TRACK 03 AUDIO
TITLE "part III"
PERFORMER "Hubbub"
INDEX 01 00:00:00
FILE "04 - part IV.wav" WAVE
TRACK 04 AUDIO
TITLE "part IV"
PERFORMER "Hubbub"
INDEX 01 00:00:00
Доп. информация: Recorded in concert at Culturel Andre Malraux, Vandoeuvre-les-Nancy, France on December 4th 2001.
 
Об альбоме (сборнике)
Fabulous French quintet featuring Frederic Blondy (piano), Bertrand Denzler (sax), Jean-Luc Guionnet (sax), Jean Sebastien Mariage (guitar) and Edward Perraud (percussion). I've noticed more and more French improvisers popping up over the past decade, besides the more well-known players like Louis Sclavis & his bands, Marc Ducret, and Noel Akchote. A newer scene is growing and evolving and includes a diverse group od players like Le Quan Ninh, Erik M, and K.K. Roll. This is the second disc from Hubbub and I only recognize two of the members, Frederic & Bertrand, from previous work on Potlatch and Leo. Nowhere on this CD do they mention what the instrumentation is or who plays what and this was recorded live, the music is continuous with no tune or section titles. No that it should matter since this just adds to the mystery. Superbly recorded and filled with suspense, well-balanced with no obvious soloing, just inter-group communication. Delicate, intricate, insect-like improv, little squeaks, rubbed strings and drums, minimal piano tinkling, scraped cymbals, and other highly focused explorations. Time is slowed down, so that things unfold naturally, organically, spaciously, building, always connecting with drones and subtle interaction. I dig when one player starts a phrase and it is completed by another player, so that you can't tell which instrument you are or were listening to. There is a strong level of communication and dialogue going on here, always something to follow as it flows in waves. This mysterious and magical quintet will be playing at the Victo Fest this coming May and maybe even playing here in NYC if I can get them a gig. Another wonderful set to look forward to.
Bruce Lee Gallanter
Downtown Music Gallery
 
Состав
Frederic Blondy
Bertrand Denzler
Jean-Luc Guionnet
Jean-Sebastien Mariage
Edward Perraud
Any questions -> support@pro-jazz.com. По всем вопросам пишите -> support@pro-jazz.com
13:42
168
Нет комментариев. Ваш будет первым!