Вы используете незарегистрированную версию компонента "Вкладки"!

Поиск

(Free Jazz) Joe McPhee / Dominic Duval / Jay Rosen / Mikolaj Trzaska - Magic - 2009, FLAC (tracks+.cue), lossless

(Free Jazz) Joe McPhee / Dominic Duval / Jay Rosen / Mikolaj Trzaska - Magic - 2009, FLAC (tracks+.cue), lossless
Треклист:
Joe McPhee / Dominic Duval / Jay Rosen / Mikolaj Trzaska - Magic
Жанр: Free Jazz
Страна-производитель диска: Польша
Год издания диска: 2009
Издатель (лейбл): Not Two
Номер по каталогу: MW 816-2
Страна: США, Польша
Аудиокодек: FLAC (*.flac)
Тип рипа: tracks+.cue
Битрейт аудио: lossless
Продолжительность: 1:29:29
Источник (релизер): другой трекер (iwals)
Наличие сканов в содержимом раздачи: да
Треклист:
1. The Magician
2. War Criminals
3. Sex Toys
4. I Remember Max (Drum Solo)
1. Return of the Terror
2. Contra-ception (Bass Solo)
3. Political Stripper
4. Turtles Crossing
5. A Night in Alchemia
6. Transaction

Recorded at Alchemia, Kraków, November 8, 2007.
 
Лог создания рипа
Exact Audio Copy V0.99 prebeta 4 from 23. January 2008
EAC extraction logfile from 13. March 2010, 12:49
McPhee / Duval / Rosen / Trzaska / Magic
Used drive : HL-DT-STBDDVDRW GGC-H20L Adapter: 1 ID: 0
Read mode : Secure
Utilize accurate stream : Yes
Defeat audio cache : Yes
Make use of C2 pointers : No
Read offset correction : 667
Overread into Lead-In and Lead-Out : No
Fill up missing offset samples with silence : Yes
Delete leading and trailing silent blocks : No
Null samples used in CRC calculations : Yes
Used interface : Native Win32 interface for Win NT & 2000
Gap handling : Appended to previous track
Used output format : User Defined Encoder
Selected bitrate : 768 kBit/s
Quality : High
Add ID3 tag : No
Command line compressor : D:\Audio\FLAC\flac.exe
Additional command line options : -6 -V -T "ARTIST=%a" -T "TITLE=%t" -T "ALBUM=%g" -T "DATE=%y" -T "TRACKNUMBER=%n" -T "GENRE=%m" -T "COMMENT=%e" %s -o %d
TOC of the extracted CD
Track | Start | Length | Start sector | End sector
---------------------------------------------------------
1 | 0:00.00 | 23:35.11 | 0 | 106135
2 | 23:35.11 | 7:51.26 | 106136 | 141486
3 | 31:26.37 | 7:15.58 | 141487 | 174169
4 | 38:42.20 | 3:32.15 | 174170 | 190084
Track 1
Filename E:\!!New Rip\McPhee, Duval, Rosen, Trzaska - Magic\01 - Magic.wav
Pre-gap length 0:00:02.00
Peak level 100.0 %
Track quality 100.0 %
Test CRC 5CCE58B5
Copy CRC 5CCE58B5
Track not present in AccurateRip database
Copy OK
Track 2
Filename E:\!!New Rip\McPhee, Duval, Rosen, Trzaska - Magic\02 - War Criminals.wav
Peak level 100.0 %
Track quality 100.0 %
Test CRC D739D396
Copy CRC D739D396
Track not present in AccurateRip database
Copy OK
Track 3
Filename E:\!!New Rip\McPhee, Duval, Rosen, Trzaska - Magic\03 - Sex Toys.wav
Peak level 92.0 %
Track quality 100.0 %
Test CRC 4484EB52
Copy CRC 4484EB52
Track not present in AccurateRip database
Copy OK
Track 4
Filename E:\!!New Rip\McPhee, Duval, Rosen, Trzaska - Magic\04 - I Remember Max (Drum Solo).wav
Peak level 100.0 %
Track quality 99.9 %
Test CRC BC968AC7
Copy CRC BC968AC7
Track not present in AccurateRip database
Copy OK
None of the tracks are present in the AccurateRip database
No errors occurred
End of status report


Exact Audio Copy V0.99 prebeta 4 from 23. January 2008
EAC extraction logfile from 13. March 2010, 14:00
McPhee, Duval, Rosen, Trzaska / Magic
Used drive : HL-DT-STBDDVDRW GGC-H20L Adapter: 1 ID: 0
Read mode : Secure
Utilize accurate stream : Yes
Defeat audio cache : Yes
Make use of C2 pointers : No
Read offset correction : 667
Overread into Lead-In and Lead-Out : No
Fill up missing offset samples with silence : Yes
Delete leading and trailing silent blocks : No
Null samples used in CRC calculations : Yes
Used interface : Native Win32 interface for Win NT & 2000
Gap handling : Appended to previous track
Used output format : User Defined Encoder
Selected bitrate : 768 kBit/s
Quality : High
Add ID3 tag : No
Command line compressor : D:\Audio\FLAC\flac.exe
Additional command line options : -6 -V -T "ARTIST=%a" -T "TITLE=%t" -T "ALBUM=%g" -T "DATE=%y" -T "TRACKNUMBER=%n" -T "GENRE=%m" -T "COMMENT=%e" %s -o %d
TOC of the extracted CD
Track | Start | Length | Start sector | End sector
---------------------------------------------------------
1 | 0:00.00 | 9:50.46 | 0 | 44295
2 | 9:50.46 | 4:45.32 | 44296 | 65702
3 | 14:36.03 | 9:02.22 | 65703 | 106374
4 | 23:38.25 | 12:52.27 | 106375 | 164301
5 | 36:30.52 | 3:58.37 | 164302 | 182188
6 | 40:29.14 | 6:45.02 | 182189 | 212565
Track 1
Filename E:\!!New Rip\McPhee, Duval, Rosen, Trzaska - Magic cd2\01 - Return of the Terror.wav
Pre-gap length 0:00:02.00
Peak level 100.0 %
Track quality 100.0 %
Test CRC AAEEEA35
Copy CRC AAEEEA35
Track not present in AccurateRip database
Copy OK
Track 2
Filename E:\!!New Rip\McPhee, Duval, Rosen, Trzaska - Magic cd2\02 - Contra-ception (Bass Solo).wav
Peak level 88.7 %
Track quality 100.0 %
Test CRC 8667F8BB
Copy CRC 8667F8BB
Track not present in AccurateRip database
Copy OK
Track 3
Filename E:\!!New Rip\McPhee, Duval, Rosen, Trzaska - Magic cd2\03 - Political Stripper.wav
Peak level 100.0 %
Track quality 100.0 %
Test CRC 224F3271
Copy CRC 224F3271
Track not present in AccurateRip database
Copy OK
Track 4
Filename E:\!!New Rip\McPhee, Duval, Rosen, Trzaska - Magic cd2\04 - Turtles Crossing.wav
Peak level 100.0 %
Track quality 99.9 %
Test CRC 5CD33CEB
Copy CRC 5CD33CEB
Track not present in AccurateRip database
Copy OK
Track 5
Filename E:\!!New Rip\McPhee, Duval, Rosen, Trzaska - Magic cd2\05 - A Night in Alchemia.wav
Peak level 100.0 %
Track quality 100.0 %
Test CRC 4CF2546F
Copy CRC 4CF2546F
Track not present in AccurateRip database
Copy OK
Track 6
Filename E:\!!New Rip\McPhee, Duval, Rosen, Trzaska - Magic cd2\06 - Transaction.wav
Peak level 100.0 %
Track quality 100.0 %
Test CRC A3EF5871
Copy CRC A3EF5871
Track not present in AccurateRip database
Copy OK
None of the tracks are present in the AccurateRip database
No errors occurred
End of status report
 
Содержание индексной карты (.CUE)
REM GENRE Jazz
REM DATE 2009
REM DISCID 3309E604
REM COMMENT "ExactAudioCopy v0.99pb4"
PERFORMER "McPhee / Duval / Rosen / Trzaska"
TITLE "Magic"
FILE "01 - Magic.wav" WAVE
TRACK 01 AUDIO
TITLE "Magic"
PERFORMER "McPhee / Duval / Rosen / Trzaska"
INDEX 01 00:00:00
FILE "02 - War Criminals.wav" WAVE
TRACK 02 AUDIO
TITLE "War Criminals"
PERFORMER "McPhee / Duval / Rosen / Trzaska"
INDEX 01 00:00:00
FILE "03 - Sex Toys.wav" WAVE
TRACK 03 AUDIO
TITLE "Sex Toys"
PERFORMER "McPhee / Duval / Rosen / Trzaska"
INDEX 01 00:00:00
FILE "04 - I Remember Max (Drum Solo).wav" WAVE
TRACK 04 AUDIO
TITLE "I Remember Max (Drum Solo)"
PERFORMER "McPhee / Duval / Rosen / Trzaska"
INDEX 01 00:00:00


REM GENRE Jazz
REM DATE 2009
REM DISCID 480B1206
REM COMMENT "ExactAudioCopy v0.99pb4"
PERFORMER "McPhee, Duval, Rosen, Trzaska"
TITLE "Magic"
FILE "01 - Return of the Terror.wav" WAVE
TRACK 01 AUDIO
TITLE "Return of the Terror"
PERFORMER "McPhee, Duval, Rosen, Trzaska"
INDEX 01 00:00:00
FILE "02 - Contra-ception (Bass Solo).wav" WAVE
TRACK 02 AUDIO
TITLE "Contra-ception (Bass Solo)"
PERFORMER "McPhee, Duval, Rosen, Trzaska"
INDEX 01 00:00:00
FILE "03 - Political Stripper.wav" WAVE
TRACK 03 AUDIO
TITLE "Political Stripper"
PERFORMER "McPhee, Duval, Rosen, Trzaska"
INDEX 01 00:00:00
FILE "04 - Turtles Crossing.wav" WAVE
TRACK 04 AUDIO
TITLE "Turtles Crossing"
PERFORMER "McPhee, Duval, Rosen, Trzaska"
INDEX 01 00:00:00
FILE "05 - A Night in Alchemia.wav" WAVE
TRACK 05 AUDIO
TITLE "A Night in Alchemia"
PERFORMER "McPhee, Duval, Rosen, Trzaska"
INDEX 01 00:00:00
FILE "06 - Transaction.wav" WAVE
TRACK 06 AUDIO
TITLE "Transaction"
PERFORMER "McPhee, Duval, Rosen, Trzaska"
INDEX 01 00:00:00
 
Лог проверки качества
AUDIOCHECKER v2.0 beta (build 457) - by Dester - opdester@freemail.hu
~~~~~~~~~~~~~~~~~~~~~~~~~~~~~~~~~~
-=== DO NOT EDIT THIS FILE! ===-
Path: ...\Magic cd1
01 -=- 01 - Magic.flac -=- CDDA (100%)
02 -=- 02 - War Criminals.flac -=- CDDA (100%)
03 -=- 03 - Sex Toys.flac -=- CDDA (100%)
04 -=- 04 - I Remember Max (Drum Solo).flac -=- CDDA (100%)
Summary 100,00% CDDA
252987540


AUDIOCHECKER v2.0 beta (build 457) - by Dester - opdester@freemail.hu
~~~~~~~~~~~~~~~~~~~~~~~~~~~~~~~~~~
-=== DO NOT EDIT THIS FILE! ===-
Path: ...\Magic cd2
01 -=- 01 - Return of the Terror.flac -=- CDDA (100%)
02 -=- 02 - Contra-ception (Bass Solo).flac -=- CDDA (100%)
03 -=- 03 - Political Stripper.flac -=- CDDA (100%)
04 -=- 04 - Turtles Crossing.flac -=- CDDA (100%)
05 -=- 05 - A Night in Alchemia.flac -=- CDDA (100%)
06 -=- 06 - Transaction.flac -=- CDDA (100%)
Summary 100,00% CDDA
210330244
 
Состав
Joe McPhee - tenor saxophone, pocket trumpet
Mikolaj Trzaska - alto saxophone, bass clarinet
Dominic Duval - bass
Jay Rosen - drums
По всем вопросам пишите личное сообщение пользователю M0p94ok.
13:41
191
Нет комментариев. Ваш будет первым!