Поиск

(Free Jazz, Avant-Garde Jazz) [CD] Alice Coltrane (w/ Pharoah Sanders) - Journey in Satchidananda - 1970 (2004 Japan Edition), FLAC (tracks+.cue), lossless

(Free Jazz, Avant-Garde Jazz) [CD] Alice Coltrane (w/ Pharoah Sanders) - Journey in Satchidananda - 1970 (2004 Japan Edition), FLAC (tracks+.cue), lossless
Alice Coltrane - Journey in Satchidananda
Жанр: Free Jazz, Avant-Garde Jazz
Носитель: CD
Страна-производитель диска (релиза): Япония
Год издания: 2004
Издатель (лейбл): Impulse!/Universal
Номер по каталогу: UCCI-9107
Страна исполнителя (группы): США
Аудиокодек: FLAC (*.flac)
Тип рипа: tracks+.cue
Битрейт аудио: lossless
Продолжительность: 37:29
Источник (релизер): measet (what)
Наличие сканов в содержимом раздачи: да
Треклист:
01. Journey in Satchidananda (A.Coltrane) - 6:41
02. Shiva-Loka (A.Coltrane) - 6:38
03. Stopover Bombay (A.Coltrane) - 2:55
04. Something About John Coltrane (A.Coltrane) - 9:45
05. Isis and Osiris (A.Coltrane) - 11:30
Состав:
Alice Coltrane - harp, piano
Pharoah Sanders - soprano saxophone, percussion
Tulsi - tambura (#1-4)
Cecil McBee (#1-4), Charlie Haden (#5) - bass
Rashied Ali - drums
Majid Shabazz (#1-4) - bells, tambourine
Vishnu Wood - oud (#5)
Recorded at the Coltrane home studio, Dix Hills, NY on November 8 (#1-4) and live at The Village Gate, New York on July 4 (#5), 1970.
 
Лог создания рипа
Exact Audio Copy V1.1 from 23. June 2015
EAC extraction logfile from 5. April 2016, 0:14
Alice Coltrane / Journey In Satchidananda
Used drive : HL-DT-STDVD+-RW GS30N Adapter: 1 ID: 0
Read mode : Secure
Utilize accurate stream : Yes
Defeat audio cache : Yes
Make use of C2 pointers : No
Read offset correction : 667
Overread into Lead-In and Lead-Out : No
Fill up missing offset samples with silence : Yes
Delete leading and trailing silent blocks : No
Null samples used in CRC calculations : Yes
Used interface : Native Win32 interface for Win NT & 2000
Gap handling : Appended to previous track
Used output format : User Defined Encoder
Selected bitrate : 1024 kBit/s
Quality : High
Add ID3 tag : No
Command line compressor : C:\Program Files (x86)\Exact Audio Copy\FLAC\FLAC.EXE
Additional command line options : -6 -V -T "ARTIST=%artist%" -T "TITLE=%title%" -T "ALBUM=%albumtitle%" -T "DATE=%year%" -T "TRACKNUMBER=%tracknr%" -T "GENRE=%genre%" -T "COMMENT=%comment%" -T "BAND=%albuminterpret%" -T "ALBUMARTIST=%albuminterpret%" -T "COMPOSER=%composer%" %haslyrics%--tag-from-file=LYRICS="%lyricsfile%"%haslyrics% -T "DISCNUMBER=%cdnumber%" -T "TOTALDISCS=%totalcds%" -T "TOTALTRACKS=%numtracks%" %hascover%--picture="%coverfile%"%hascover% %source% -o %dest%
TOC of the extracted CD
Track | Start | Length | Start sector | End sector
---------------------------------------------------------
1 | 0:00.00 | 6:41.02 | 0 | 30076
2 | 6:41.02 | 6:38.00 | 30077 | 59926
3 | 13:19.02 | 2:54.65 | 59927 | 73041
4 | 16:13.67 | 9:45.28 | 73042 | 116944
5 | 25:59.20 | 11:29.40 | 116945 | 168659
Track 1
Filename D:\music\Alice Coltrane - Journey In Satchidananda\01. Alice Coltrane - Journey in Satchidananda.wav
Pre-gap length 0:00:02.00
Peak level 61.9 %
Extraction speed 2.8 X
Track quality 99.9 %
Test CRC 5B1E52DD
Copy CRC 5B1E52DD
Accurately ripped (confidence 1) [0E55A5A4] (AR v2)
Copy OK
Track 2
Filename D:\music\Alice Coltrane - Journey In Satchidananda\02. Alice Coltrane - Shiva-Loka.wav
Pre-gap length 0:00:04.61
Peak level 61.4 %
Extraction speed 3.5 X
Track quality 100.0 %
Test CRC 5558AEC1
Copy CRC 5558AEC1
Accurately ripped (confidence 1) [0E220CD4] (AR v2)
Copy OK
Track 3
Filename D:\music\Alice Coltrane - Journey In Satchidananda\03. Alice Coltrane - Stopover Bombay.wav
Pre-gap length 0:00:04.61
Peak level 58.0 %
Extraction speed 3.5 X
Track quality 100.0 %
Test CRC CD6B5BFE
Copy CRC CD6B5BFE
Accurately ripped (confidence 1) [DE890460] (AR v2)
Copy OK
Track 4
Filename D:\music\Alice Coltrane - Journey In Satchidananda\04. Alice Coltrane - Something About John Coltrane.wav
Pre-gap length 0:00:04.61
Peak level 67.1 %
Extraction speed 4.4 X
Track quality 100.0 %
Test CRC 5B30B9AD
Copy CRC 5B30B9AD
Accurately ripped (confidence 1) [F010585A] (AR v2)
Copy OK
Track 5
Filename D:\music\Alice Coltrane - Journey In Satchidananda\05. Alice Coltrane - Isis And Osiris.wav
Pre-gap length 0:00:04.47
Peak level 68.4 %
Extraction speed 5.1 X
Track quality 100.0 %
Test CRC 054E1CEC
Copy CRC 054E1CEC
Accurately ripped (confidence 1) [F74D254A] (AR v2)
Copy OK
All tracks accurately ripped
No errors occurred
End of status report
---- CUETools DB Plugin V2.1.6
[CTDB TOCID: nLTgay0mEdtNu8C8q5qXPHsocCk-] found
Submit result: already submitted
Track | CTDB Status
1 | (2/2) Accurately ripped
2 | (2/2) Accurately ripped
3 | (2/2) Accurately ripped
4 | (2/2) Accurately ripped
5 | (2/2) Accurately ripped
==== Log checksum EFA9BF630E52183604F8E7F1153EE25F569D59A1C8C0B337BCDB576315E032C1 ====
 
Содержание индексной карты (.CUE)
REM GENRE Jazz
REM DATE 1970
REM DISCID 3408C805
REM COMMENT "ExactAudioCopy v1.1"
CATALOG 4988005372079
PERFORMER "Alice Coltrane"
TITLE "Journey in Satchidananda"
FILE "01 - Journey in Satchidananda.wav" WAVE
TRACK 01 AUDIO
TITLE "Journey in Satchidananda"
PERFORMER "Alice Coltrane"
INDEX 01 00:00:00
TRACK 02 AUDIO
TITLE "Shiva-Loka"
PERFORMER "Alice Coltrane"
INDEX 00 06:36:16
FILE "02 - Shiva-Loka.wav" WAVE
INDEX 01 00:00:00
TRACK 03 AUDIO
TITLE "Stopover Bombay"
PERFORMER "Alice Coltrane"
INDEX 00 06:33:14
FILE "03 - Stopover Bombay.wav" WAVE
INDEX 01 00:00:00
TRACK 04 AUDIO
TITLE "Something About John Coltrane"
PERFORMER "Alice Coltrane"
INDEX 00 02:50:04
FILE "04 - Something About John Coltrane.wav" WAVE
INDEX 01 00:00:00
TRACK 05 AUDIO
TITLE "Isis and Osiris"
PERFORMER "Alice Coltrane"
INDEX 00 09:40:56
FILE "05 - Isis and Osiris.wav" WAVE
INDEX 01 00:00:00
 
Отчет CUETools
[CUETools log; Date: 24.04.2016 18:21:17; Version: 2.1.5]
[CTDB TOCID: nLTgay0mEdtNu8C8q5qXPHsocCk-] found.
Track | CTDB Status
1 | (2/2) Accurately ripped
2 | (2/2) Accurately ripped
3 | (2/2) Accurately ripped
4 | (2/2) Accurately ripped
5 | (2/2) Accurately ripped
[AccurateRip ID: 0006d88b-00207b95-3408c805] found.
Track [ CRC | V2 ] Status
01 [4e73c349|0e55a5a4] (1+1/2) Accurately ripped
02 [bd32ac3a|0e220cd4] (1+1/2) Accurately ripped
03 [e15c2c65|de890460] (1+1/2) Accurately ripped
04 [3ad387b1|f010585a] (1+1/2) Accurately ripped
05 [d55db607|f74d254a] (1+1/2) Accurately ripped
Track Peak [ CRC32 ] [W/O NULL] [ LOG ]
-- 68,4 [EBEE9F8C] [8E156392]
01 61,9 [5B1E52DD] [FBA13A3E] CRC32
02 61,4 [5558AEC1] [50A308EB] CRC32
03 58,0 [CD6B5BFE] [ABE7F5B6] CRC32
04 67,1 [5B30B9AD] [683363E0] CRC32
05 68,4 [054E1CEC] [A3791C79] CRC32
 
AllMusic Review by Thom Jurek
The CD reissue of Alice Coltrane's landmark Journey to Satchidananda reveals just how far the pianist and widow of John Coltrane had come in the three years after his death. The compositions here are wildly open and droning figures built on whole tones and minor modes. And while it's true that one can definitely hear her late husband's influence on this music, she wouldn't have had it any other way. Pharoah Sanders' playing on the title cut, "Shiva-Loka," and "Isis and Osiris" (which also features the Vishnu Wood on oud and Charlie Haden on bass) is gloriously restrained and melodic. Coltrane's harp playing, too, is an element of tonal expansion as much as it is a modal and melodic device. With a tamboura player, Cecil McBee on bass, Rashied Ali on drums, and Majid Shabazz on bells and tambourine, tracks such as "Stopover Bombay" and the D minor modally drenched "Something About John Coltrane" become exercised in truly Eastern blues improvisation. Sanders plays soprano exclusively, and the interplay between it and Coltrane's piano and harp is mesmerizing. With the drone factor supplied either by the tamboura or the oud, the elongation of line and extended duration of intervallic exploration is wondrous. The depths to which these blues are played reveal their roots in African antiquity more fully than any jazz or blues music on record, a tenet that exists today over 30 years after the fact. One last note, the "Isis and Osiris" track, which was recorded live at the Village Gate, features some of the most intense bass and drum interplay -- as it exists between Haden and Ali -- in the history of vanguard jazz. Truly, this is a remarkable album, and necessary for anyone interested in the development of modal and experimental jazz. It's also remarkably accessible.
(Avant-Garde Jazz, Free Jazz) Alice Coltrane Featuring Pharoah Sanders - Journey In Satchidananda - (1970) - 1997, FLAC (tracks+.cue), lossless
19:54
720
Нет комментариев. Ваш будет первым!