Вы используете незарегистрированную версию компонента "Вкладки"!

Поиск

(Free Jazz, Avant-Garde Jazz) [CD] Alice Coltrane (w/ Pharoah Sanders, Joe Henderson) - Ptah, The El Daoud - 1970 (2004 Japan Edition), FLAC (tracks+.cue), lossless

(Free Jazz, Avant-Garde Jazz) [CD] Alice Coltrane (w/ Pharoah Sanders, Joe Henderson) - Ptah, The El Daoud - 1970 (2004 Japan Edition), FLAC (tracks+.cue), lossless
Треклист:
Alice Coltrane - Ptah, The El Daoud
Жанр: Free Jazz, Avant-Garde Jazz
Носитель: CD
Страна-производитель диска (релиза): Япония
Год издания: 2004
Издатель (лейбл): Impulse!/Universal
Номер по каталогу: UCCI-9106
Страна исполнителя (группы): США
Аудиокодек: FLAC (*.flac)
Тип рипа: tracks+.cue
Битрейт аудио: lossless
Продолжительность: 46:13
Источник (релизер): measet (what)
Наличие сканов в содержимом раздачи: да
Треклист:
01. Ptah, The El Daoud (A.Coltrane) - 14:05
02. Turiya & Ramakrishna (A.Coltrane) - 8:24
03. Blue Nile (A.Coltrane) - 7:06
04. Mantra (A.Coltrane) - 16:38
Состав:
Alice Coltrane - piano, harp
Pharoah Sanders - tenor saxophone, alto flute, bells
Joe Henderson - tenor saxophone, alto flute
Ron Carter - bass
Ben Riley - drums
Recorded at the Coltrane home studio, Dix Hills, NY on January 26, 1970.
 
Лог создания рипа
Exact Audio Copy V1.1 from 23. June 2015
EAC extraction logfile from 2. April 2016, 11:23
Alice Coltrane / Ptah, The El Daoud
Used drive : HL-DT-STDVD+-RW GS30N Adapter: 1 ID: 0
Read mode : Secure
Utilize accurate stream : Yes
Defeat audio cache : Yes
Make use of C2 pointers : No
Read offset correction : 667
Overread into Lead-In and Lead-Out : No
Fill up missing offset samples with silence : Yes
Delete leading and trailing silent blocks : No
Null samples used in CRC calculations : Yes
Used interface : Native Win32 interface for Win NT & 2000
Gap handling : Appended to previous track
Used output format : User Defined Encoder
Selected bitrate : 1024 kBit/s
Quality : High
Add ID3 tag : No
Command line compressor : C:\Program Files (x86)\Exact Audio Copy\FLAC\FLAC.EXE
Additional command line options : -6 -V -T "ARTIST=%artist%" -T "TITLE=%title%" -T "ALBUM=%albumtitle%" -T "DATE=%year%" -T "TRACKNUMBER=%tracknr%" -T "GENRE=%genre%" -T "COMMENT=%comment%" -T "BAND=%albuminterpret%" -T "ALBUMARTIST=%albuminterpret%" -T "COMPOSER=%composer%" %haslyrics%--tag-from-file=LYRICS="%lyricsfile%"%haslyrics% -T "DISCNUMBER=%cdnumber%" -T "TOTALDISCS=%totalcds%" -T "TOTALTRACKS=%numtracks%" %hascover%--picture="%coverfile%"%hascover% %source% -o %dest%
TOC of the extracted CD
Track | Start | Length | Start sector | End sector
---------------------------------------------------------
1 | 0:00.00 | 14:04.60 | 0 | 63359
2 | 14:04.60 | 8:23.40 | 63360 | 101124
3 | 22:28.25 | 7:05.62 | 101125 | 133061
4 | 29:34.12 | 16:37.38 | 133062 | 207874
Track 1
Filename D:\music\Alice Coltrane - Ptah, The El Daoud\01. Alice Coltrane - Ptah, The El Daoud.wav
Pre-gap length 0:00:02.00
Peak level 78.0 %
Extraction speed 3.5 X
Track quality 100.0 %
Test CRC F39BBB76
Copy CRC F39BBB76
Accurately ripped (confidence 1) [9270CBD5] (AR v2)
Copy OK
Track 2
Filename D:\music\Alice Coltrane - Ptah, The El Daoud\02. Alice Coltrane - Turiya And Ramakrishna.wav
Pre-gap length 0:00:04.62
Peak level 63.5 %
Extraction speed 4.2 X
Track quality 100.0 %
Test CRC FE5852B7
Copy CRC FE5852B7
Accurately ripped (confidence 1) [D100505A] (AR v2)
Copy OK
Track 3
Filename D:\music\Alice Coltrane - Ptah, The El Daoud\03. Alice Coltrane - Blue Nile.wav
Pre-gap length 0:00:04.62
Peak level 60.9 %
Extraction speed 4.5 X
Track quality 100.0 %
Test CRC 2BB01BF2
Copy CRC 2BB01BF2
Accurately ripped (confidence 1) [4CE4AE7E] (AR v2)
Copy OK
Track 4
Filename D:\music\Alice Coltrane - Ptah, The El Daoud\04. Alice Coltrane - Mantra.wav
Pre-gap length 0:00:04.61
Peak level 77.9 %
Extraction speed 5.4 X
Track quality 100.0 %
Test CRC 8D078788
Copy CRC 8D078788
Accurately ripped (confidence 1) [60178009] (AR v2)
Copy OK
All tracks accurately ripped
No errors occurred
End of status report
---- CUETools DB Plugin V2.1.6
[CTDB TOCID: KF5aiCwRTGpIPL1Y_qXIA07e2Lk-] found
Submit result: KF5aiCwRTGpIPL1Y_qXIA07e2Lk- has been confirmed
Track | CTDB Status
1 | (1/1) Accurately ripped
2 | (1/1) Accurately ripped
3 | (1/1) Accurately ripped
4 | (1/1) Accurately ripped
==== Log checksum E36FDF5EDDA05B3568D7753F1F07D1687E201AD0FF74840AF36BE28A5F2ECC7D ====
 
Содержание индексной карты (.CUE)
REM GENRE Jazz
REM DATE 1970
REM DISCID 320AD304
REM COMMENT "ExactAudioCopy v1.1"
CATALOG 4988005372062
PERFORMER "Alice Coltrane"
TITLE "Ptah, The El Daoud"
FILE "01 - Ptah, The El Daoud.wav" WAVE
TRACK 01 AUDIO
TITLE "Ptah, The El Daoud"
PERFORMER "Alice Coltrane"
ISRC USMC17049550
INDEX 01 00:00:00
TRACK 02 AUDIO
TITLE "Turiya & Ramakrishna"
PERFORMER "Alice Coltrane"
ISRC USMC17049551
INDEX 00 13:59:73
FILE "02 - Turiya & Ramakrishna.wav" WAVE
INDEX 01 00:00:00
TRACK 03 AUDIO
TITLE "Blue Nile"
PERFORMER "Alice Coltrane"
ISRC USMC17049552
INDEX 00 08:18:53
FILE "03 - Blue Nile.wav" WAVE
INDEX 01 00:00:00
TRACK 04 AUDIO
TITLE "Mantra"
PERFORMER "Alice Coltrane"
ISRC USMC17049553
INDEX 00 07:01:01
FILE "04 - Mantra.wav" WAVE
INDEX 01 00:00:00
 
Отчет CUETools
[CUETools log; Date: 24.04.2016 18:40:33; Version: 2.1.5]
[CTDB TOCID: KF5aiCwRTGpIPL1Y_qXIA07e2Lk-] found.
Track | CTDB Status
1 | (2/2) Accurately ripped
2 | (2/2) Accurately ripped
3 | (2/2) Accurately ripped
4 | (2/2) Accurately ripped
[AccurateRip ID: 0007b64e-001e8b37-320ad304] found.
Track [ CRC | V2 ] Status
01 [a361b323|9270cbd5] (0+1/1) Accurately ripped
02 [ac4e87e1|d100505a] (0+1/1) Accurately ripped
03 [3563c341|4ce4ae7e] (0+1/1) Accurately ripped
04 [7613982a|60178009] (0+1/1) Accurately ripped
Track Peak [ CRC32 ] [W/O NULL] [ LOG ]
-- 78,0 [7B9D861D] [4A166746]
01 78,0 [F39BBB76] [63A30DDA] CRC32
02 63,5 [FE5852B7] [CBBFE842] CRC32
03 60,9 [2BB01BF2] [1FAE1468] CRC32
04 77,9 [8D078788] [1A30C287] CRC32
 
AllMusic Review by Stacia Proefrock
Sometimes written off as an also-ran to her more famous husband, Alice Coltrane's work of the late '60s and early '70s shows that she was a strong composer and performer in her own right, with a unique ability to impregnate her music with spirituality and gentleness without losing its edges or depth. Ptah, The El Daoud is a truly great album, and listeners who surrender themselves to it emerge on the other side of its 46 minutes transformed. From the purifying catharsis of the first moments of the title track to the last moments of "Mantra," with its disjointed piano dance and passionate ribbons of tenor cast out into the universe, the album resonates with beauty, clarity, and emotion. Coltrane's piano solo on "Turiya and Ramakrishna" is a lush, melancholy, soothing blues, punctuated only by hushed bells and the sandy whisper of Ben Riley's drums and later exchanged for an equally emotive solo by bassist Ron Carter. "Blue Nile" is a case where the whole is greater than the sum of its parts; Coltrane's sweeping flourishes on the harp nestle in perfectly with flute solos by Pharoah Sanders and Joe Henderson to produce a warm cocoon of sound that is colored by evocations of water, greenness, and birds. Perhaps as strong as the writing here, though, are the performances that Coltrane coaxes from her sidemen, especially the horn players. Joe Henderson, who can always be counted on for technical excellence, gives a performance that is simply on a whole other level from much of his other work -- freer, more open, and more fluid here than nearly anywhere else. Pharoah Sanders, who at times with John Coltrane seemed like a magnetic force of entropy, pulling him toward increasing levels of chaos, shows all of the innovation and spiritual energy here that he is known for, with none of the screeching. Overlooked and buried for years in obscurity, this album deserves to be embraced for the gem it is.
(Free Jazz, Avant-garde, Modal Jazz) Alice Coltrane - Ptah, The El Daoud - 1970 (1996 Remaster), FLAC (tracks+.cue), lossless
По всем вопросам пишите личное сообщение пользователю M0p94ok.
19:55
367
Нет комментариев. Ваш будет первым!