Вы используете незарегистрированную версию компонента "Вкладки"!

Поиск

(Free Jazz, Avant-Garde Jazz) [CD] Alice Coltrane - Universal Consciousness - 1971 (2004 Japan Edition), FLAC (tracks+.cue), lossless

(Free Jazz, Avant-Garde Jazz) [CD] Alice Coltrane - Universal Consciousness - 1971 (2004 Japan Edition), FLAC (tracks+.cue), lossless
Треклист:
Alice Coltrane - Universal Consciousness
Жанр: Free Jazz, Avant-Garde Jazz
Носитель: CD
Страна-производитель диска (релиза): Япония
Год издания: 2004
Издатель (лейбл): Impulse!/Universal
Номер по каталогу: UCCI-9108
Страна исполнителя (группы): США
Аудиокодек: FLAC (*.flac)
Тип рипа: tracks+.cue
Битрейт аудио: lossless
Продолжительность: 36:40
Источник (релизер): measet (what)
Наличие сканов в содержимом раздачи: да
Треклист:
01. Universal Consciousness (A.Coltrane) - 5:07
02. Battle at Armageddon (A.Coltrane) - 7:21
03. Oh Allah (A.Coltrane) - 5:00
04. Hare Krishna (Trad.) - 8:15
05. Sita Ram (Trad.) - 4:47
06. The Ankh of Amen-Ra (A.Coltrane) - 6:10
Состав:
Alice Coltrane - organ, harp
John Blair, Leroy Jenkins, Julius Brand, Joan Kalisch - violins (#1,3,4)
Jimmy Garrison - bass (#1,3-5)
Jack DeJohnette - drums (#1,3,4)
Clifford Jarvis - drums (#4,5), percussion (#4)
Rashied Ali - drums (#2,6), wind chimes (#6)
Tulsi - tamboura (#4,5)
Recorded at A&R Recording, New York and the Coltrane Studio, Dix Hills, NY on April 6 - June 19, 1971.
 
Лог создания рипа
Exact Audio Copy V1.1 from 23. June 2015
EAC extraction logfile from 2. April 2016, 11:47
Alice Coltrane / Universal Consciousness
Used drive : HL-DT-STDVD+-RW GS30N Adapter: 1 ID: 0
Read mode : Secure
Utilize accurate stream : Yes
Defeat audio cache : Yes
Make use of C2 pointers : No
Read offset correction : 667
Overread into Lead-In and Lead-Out : No
Fill up missing offset samples with silence : Yes
Delete leading and trailing silent blocks : No
Null samples used in CRC calculations : Yes
Used interface : Native Win32 interface for Win NT & 2000
Gap handling : Appended to previous track
Used output format : User Defined Encoder
Selected bitrate : 1024 kBit/s
Quality : High
Add ID3 tag : No
Command line compressor : C:\Program Files (x86)\Exact Audio Copy\FLAC\FLAC.EXE
Additional command line options : -6 -V -T "ARTIST=%artist%" -T "TITLE=%title%" -T "ALBUM=%albumtitle%" -T "DATE=%year%" -T "TRACKNUMBER=%tracknr%" -T "GENRE=%genre%" -T "COMMENT=%comment%" -T "BAND=%albuminterpret%" -T "ALBUMARTIST=%albuminterpret%" -T "COMPOSER=%composer%" %haslyrics%--tag-from-file=LYRICS="%lyricsfile%"%haslyrics% -T "DISCNUMBER=%cdnumber%" -T "TOTALDISCS=%totalcds%" -T "TOTALTRACKS=%numtracks%" %hascover%--picture="%coverfile%"%hascover% %source% -o %dest%
TOC of the extracted CD
Track | Start | Length | Start sector | End sector
---------------------------------------------------------
1 | 0:00.00 | 5:06.68 | 0 | 23017
2 | 5:06.68 | 7:20.55 | 23018 | 56072
3 | 12:27.48 | 5:00.37 | 56073 | 78609
4 | 17:28.10 | 8:14.65 | 78610 | 115724
5 | 25:43.00 | 4:47.23 | 115725 | 137272
6 | 30:30.23 | 6:09.69 | 137273 | 165016
Track 1
Filename D:\music\Alice Coltrane - Universal Consciousness\01. Alice Coltrane - Universal Consciousness.wav
Pre-gap length 0:00:02.00
Peak level 100.0 %
Extraction speed 2.9 X
Track quality 100.0 %
Test CRC 0C76F41C
Copy CRC 0C76F41C
Accurately ripped (confidence 7) [D4BC61C3] (AR v2)
Copy OK
Track 2
Filename D:\music\Alice Coltrane - Universal Consciousness\02. Alice Coltrane - Battle At Armageddon.wav
Pre-gap length 0:00:04.60
Peak level 100.0 %
Extraction speed 3.5 X
Track quality 100.0 %
Test CRC 505C37EC
Copy CRC 505C37EC
Accurately ripped (confidence 7) [45A99946] (AR v2)
Copy OK
Track 3
Filename D:\music\Alice Coltrane - Universal Consciousness\03. Alice Coltrane - Oh, Allah.wav
Pre-gap length 0:00:01.30
Peak level 100.0 %
Extraction speed 3.8 X
Track quality 100.0 %
Test CRC 1BAA1D23
Copy CRC 1BAA1D23
Accurately ripped (confidence 7) [3CA11376] (AR v2)
Copy OK
Track 4
Filename D:\music\Alice Coltrane - Universal Consciousness\04. Alice Coltrane - Hare Krishna.wav
Pre-gap length 0:00:07.70
Peak level 100.0 %
Extraction speed 4.3 X
Track quality 100.0 %
Test CRC D460D585
Copy CRC D460D585
Accurately ripped (confidence 7) [D6091A52] (AR v2)
Copy OK
Track 5
Filename D:\music\Alice Coltrane - Universal Consciousness\05. Alice Coltrane - Sita Ram.wav
Pre-gap length 0:00:01.12
Peak level 99.9 %
Extraction speed 4.5 X
Track quality 100.0 %
Test CRC B80CB615
Copy CRC B80CB615
Accurately ripped (confidence 7) [0CB4E2E6] (AR v2)
Copy OK
Track 6
Filename D:\music\Alice Coltrane - Universal Consciousness\06. Alice Coltrane - The Ankh Of Amen-Ra.wav
Pre-gap length 0:00:02.15
Peak level 99.9 %
Extraction speed 4.9 X
Track quality 100.0 %
Test CRC C1721167
Copy CRC C1721167
Accurately ripped (confidence 7) [87CBEDE8] (AR v2)
Copy OK
All tracks accurately ripped
No errors occurred
End of status report
---- CUETools DB Plugin V2.1.6
[CTDB TOCID: o7X8G8Tz6Dfer.BxJFkK75f8hFU-] found
Submit result: o7X8G8Tz6Dfer.BxJFkK75f8hFU- has been confirmed
Track | CTDB Status
1 | (7/7) Accurately ripped
2 | (7/7) Accurately ripped
3 | (7/7) Accurately ripped
4 | (7/7) Accurately ripped
5 | (7/7) Accurately ripped
6 | (6/7) Accurately ripped
==== Log checksum BE3B07154BCA30536BF12824FF734FFD48223EADD591E4F97FFDC2CD538C7E89 ====
 
Содержание индексной карты (.CUE)
REM GENRE Jazz
REM DATE 1971
REM DISCID 44089806
REM COMMENT "ExactAudioCopy v1.1"
CATALOG 0731458951421
PERFORMER "Alice Coltrane"
TITLE "Universal Consciousness"
FILE "01 - Universal Consciousness.wav" WAVE
TRACK 01 AUDIO
TITLE "Universal Consciousness"
PERFORMER "Alice Coltrane"
ISRC USMC17153533
INDEX 01 00:00:00
TRACK 02 AUDIO
TITLE "Battle at Armageddon"
PERFORMER "Alice Coltrane"
ISRC USMC17153534
INDEX 00 05:02:08
FILE "02 - Battle at Armageddon.wav" WAVE
INDEX 01 00:00:00
TRACK 03 AUDIO
TITLE "Oh Allah"
PERFORMER "Alice Coltrane"
ISRC USMC17153539
INDEX 00 07:19:25
FILE "03 - Oh Allah.wav" WAVE
INDEX 01 00:00:00
TRACK 04 AUDIO
TITLE "Hare Krishna"
PERFORMER "Alice Coltrane"
ISRC USGR10200058
INDEX 00 04:52:42
FILE "04 - Hare Krishna.wav" WAVE
INDEX 01 00:00:00
TRACK 05 AUDIO
TITLE "Sita Ram"
PERFORMER "Alice Coltrane"
ISRC USMC17153801
INDEX 00 08:13:53
FILE "05 - Sita Ram.wav" WAVE
INDEX 01 00:00:00
TRACK 06 AUDIO
TITLE "The Ankh of Amen-Ra"
PERFORMER "Alice Coltrane"
ISRC USGR10200059
INDEX 00 04:45:08
FILE "06 - The Ankh of Amen-Ra.wav" WAVE
INDEX 01 00:00:00
 
Отчет CUETools
[CUETools log; Date: 24.04.2016 18:55:22; Version: 2.1.5]
[CTDB TOCID: o7X8G8Tz6Dfer.BxJFkK75f8hFU-] found.
Track | CTDB Status
1 | (8/8) Accurately ripped
2 | (8/8) Accurately ripped
3 | (8/8) Accurately ripped
4 | (8/8) Accurately ripped
5 | (8/8) Accurately ripped
6 | (7/8) Accurately ripped
[AccurateRip ID: 0008c8e4-002f16fe-44089806] found.
Track [ CRC | V2 ] Status
01 [72165ec3|d4bc61c3] (06+07/13) Accurately ripped
02 [fe31dd66|45a99946] (06+07/13) Accurately ripped
03 [6914f8e7|3ca11376] (06+07/13) Accurately ripped
04 [6fcd89c2|d6091a52] (06+07/13) Accurately ripped
05 [380d8aa7|0cb4e2e6] (06+07/13) Accurately ripped
06 [76125158|87cbede8] (06+07/13) Accurately ripped
Track Peak [ CRC32 ] [W/O NULL] [ LOG ]
-- 99,9 [097884CA] [8EE9C3F6]
01 99,9 [0C76F41C] [0B4B93AC] CRC32
02 99,9 [505C37EC] [152A9888] CRC32
03 99,9 [1BAA1D23] [89E65B2F] CRC32
04 99,9 [D460D585] [08B8F50F] CRC32
05 99,9 [B80CB615] [CE7CCD12] CRC32
06 99,9 [C1721167] [94479F8C] CRC32
 
AllMusic Review by Thom Jurek
Recorded between April and June of 1971, Alice Coltrane's Universal Consciousness stands as her classic work. As a testament to the articulation of her spiritual principles, Universal Consciousness stands even above World Galaxy as a recording where the medium of music, both composed and improvised, perfectly united the realms of body (in performance), speech (in the utterance of individual instrumentalists and group interplay), and mind (absolute focus) for the listener to take into her or his own experience. While many regard Universal Consciousness as a "jazz" album, it transcends even free jazz by its reliance on deeply thematic harmonic material and the closely controlled sonic dynamics in its richly hued chromatic palette. The set opens with the title track, where strings engage large washes of Coltrane's harp as Jack DeJohnette's drums careen in a spirit dance around the outer edge of the maelstrom. On first listen, the string section and the harp are in counter-dictum, moving against each other in a modal cascade of sounds, but this soon proves erroneous as Coltrane's harp actually embellishes the timbral glissandos pouring forth. Likewise, Jimmy Garrison's bass seeks to ground the proceedings to DeJohnette's singing rhythms, and finally Coltrane moves the entire engagement to another dimension with her organ. Leroy Jenkins' violin and Garrison's bottom two strings entwine one another in Ornette Coleman's transcription as Coltrane and the other strings offer a middling bridge for exploration. It's breathtaking. On "Battle at Armageddon," the violence depicted is internal; contrapuntal rhythmic impulses whirl around each other as Coltrane's organ and harp go head to head with Rashied Ali's drums. "Oh Allah" rounds out side one with a gorgeously droning, awe-inspiring modal approach to whole-tone music that enfolds itself into the lines of organic polyphony as the strings color each present theme intervalically. DeJohnette's brushwork lisps the edges and Garrison's bass underscores each chord and key change in Coltrane's constant flow of thought.
On side two, "Hare Krishna" is a chant-like piece that is birthed from minor-key ascendancy with a loping string figure transcribed by Coleman from Coltrane's composition on the organ. She lays deep in the cut, offering large shimmering chords that twirl -- eventually -- around high-register ostinatos and pedal work. It's easily the most beautiful and accessible track in the set, in that it sings with a devotion that has at its base the full complement of Coltrane's compositional palette. "Sita Ram" is a piece that echoes "Hare Krishna" in that it employs Garrison and drummer Clifford Jarvis, but replaces the strings with a tamboura player. Everything here moves very slowly, harp and organ drift into and out of one another like breath, and the rhythm section -- informed by the tamboura's drone -- lilts on Coltrane's every line. As the single-fingered lines engage the rhythm section more fully toward the end of the tune, it feels like a soloist improvising over a chanting choir. Finally, the album ends with another duet between Ali and Coltrane. Ali uses wind chimes as well as his trap kit, and what transpires between the two is an organically erected modal architecture, where texture and timbre offer the faces of varying intervals: Dynamic, improvisational logic and tonal exploration become elemental figures in an intimate yet universal conversation that has the search itself and the uncertain nature of arrival, either musically or spiritually, at its root. This ambiguity is the only way a recording like this could possibly end, with spiritual questioning and yearning in such a musically sophisticated and unpretentious way. The answers to those questions can perhaps be found in the heart of the music itself, but more than likely they can, just as they are articulated here, only be found in the recesses of the human heart. This is art of the highest order, conceived by a brilliant mind, poetically presented in exquisite collaboration by divinely inspired musicians and humbly offered as a gift to listeners. It is a true masterpiece. The CD reissue by Universal comes with a handsome Japanese-style five-by-five-inch paper sleeve with liner notes reprinted inside and devastatingly gorgeous 24-bit remastering.
По всем вопросам пишите личное сообщение пользователю M0p94ok.
19:56
339
Нет комментариев. Ваш будет первым!