Вы используете незарегистрированную версию компонента "Вкладки"!

Поиск

(Free Jazz, Avant-Garde Jazz) [CD] Alice Coltrane - A Monastic Trio - 1968 (2004 Japan Edition), FLAC (tracks+.cue), lossless

(Free Jazz, Avant-Garde Jazz) [CD] Alice Coltrane - A Monastic Trio - 1968 (2004 Japan Edition), FLAC (tracks+.cue), lossless
Треклист:
Alice Coltrane - A Monastic Trio
Жанр: Free Jazz, Avant-Garde Jazz
Носитель: CD
Страна-производитель диска (релиза): Япония
Год издания: 2004
Издатель (лейбл): Impulse!/Universal
Номер по каталогу: UCCI-9104
Страна исполнителя (группы): США
Аудиокодек: FLAC (*.flac)
Тип рипа: tracks+.cue
Битрейт аудио: lossless
Продолжительность: 38:40
Источник (релизер): measet (what)
Наличие сканов в содержимом раздачи: да
Треклист:
01. Ohnedaruth (A.Coltrane) - 7:53
02. Gospel Trane (A.Coltrane) - 6:49
03. I Want to See You (A.Coltrane) - 6:46
04. Lovely Sky Boat (A.Coltrane) - 6:56
05. Oceanic Beloved (A.Coltrane) - 4:21
06. Atmic Peace (A.Coltrane) - 5:55
Состав:
Alice Coltrane - piano (#1-3), harp (#4-6)
Jimmy Garrison - bass
Ben Riley (#1), Rashied Ali (#2-6) - drums
Pharoah Sanders - bass clarinet (#1)
Recorded at the Coltrane home studio, Dix Hills, NY on January 29 (#1) and June 6 (#2-6), 1968.
 
Лог создания рипа
Exact Audio Copy V1.1 from 23. June 2015
EAC extraction logfile from 1. April 2016, 0:23
Alice Coltrane / A Monastic Trio
Used drive : HL-DT-STDVD+-RW GS30N Adapter: 1 ID: 0
Read mode : Secure
Utilize accurate stream : Yes
Defeat audio cache : Yes
Make use of C2 pointers : No
Read offset correction : 667
Overread into Lead-In and Lead-Out : No
Fill up missing offset samples with silence : Yes
Delete leading and trailing silent blocks : No
Null samples used in CRC calculations : Yes
Used interface : Native Win32 interface for Win NT & 2000
Gap handling : Appended to previous track
Used output format : User Defined Encoder
Selected bitrate : 1024 kBit/s
Quality : High
Add ID3 tag : No
Command line compressor : C:\Program Files (x86)\Exact Audio Copy\FLAC\FLAC.EXE
Additional command line options : -6 -V -T "ARTIST=%artist%" -T "TITLE=%title%" -T "ALBUM=%albumtitle%" -T "DATE=%year%" -T "TRACKNUMBER=%tracknr%" -T "GENRE=%genre%" -T "COMMENT=%comment%" -T "BAND=%albuminterpret%" -T "ALBUMARTIST=%albuminterpret%" -T "COMPOSER=%composer%" %haslyrics%--tag-from-file=LYRICS="%lyricsfile%"%haslyrics% -T "DISCNUMBER=%cdnumber%" -T "TOTALDISCS=%totalcds%" -T "TOTALTRACKS=%numtracks%" %hascover%--picture="%coverfile%"%hascover% %source% -o %dest%
TOC of the extracted CD
Track | Start | Length | Start sector | End sector
---------------------------------------------------------
1 | 0:00.00 | 7:53.15 | 0 | 35489
2 | 7:53.15 | 6:49.35 | 35490 | 66199
3 | 14:42.50 | 6:46.35 | 66200 | 96684
4 | 21:29.10 | 6:55.55 | 96685 | 127864
5 | 28:24.65 | 4:21.22 | 127865 | 147461
6 | 32:46.12 | 5:54.55 | 147462 | 174066
Track 1
Filename D:\music\Alice Coltrane - A Monastic Trio\01. Alice Coltrane - Ohnedaruth.wav
Pre-gap length 0:00:02.00
Peak level 94.5 %
Extraction speed 3.1 X
Track quality 100.0 %
Test CRC B19D600C
Copy CRC B19D600C
Accurately ripped (confidence 1) [BB4A210E] (AR v2)
Copy OK
Track 2
Filename D:\music\Alice Coltrane - A Monastic Trio\02. Alice Coltrane - Gospel Trane.wav
Pre-gap length 0:00:03.09
Peak level 100.0 %
Extraction speed 3.6 X
Track quality 100.0 %
Test CRC E0240935
Copy CRC E0240935
Accurately ripped (confidence 1) [021DC486] (AR v2)
Copy OK
Track 3
Filename D:\music\Alice Coltrane - A Monastic Trio\03. Alice Coltrane - I Want To See You.wav
Pre-gap length 0:00:03.69
Peak level 91.0 %
Extraction speed 4.0 X
Track quality 100.0 %
Test CRC 19AD49B0
Copy CRC 19AD49B0
Accurately ripped (confidence 1) [10D5E9A5] (AR v2)
Copy OK
Track 4
Filename D:\music\Alice Coltrane - A Monastic Trio\04. Alice Coltrane - Lovely Sky Boat.wav
Pre-gap length 0:00:03.49
Peak level 94.3 %
Extraction speed 4.4 X
Track quality 100.0 %
Test CRC CE5C8525
Copy CRC CE5C8525
Accurately ripped (confidence 1) [2EF13256] (AR v2)
Copy OK
Track 5
Filename D:\music\Alice Coltrane - A Monastic Trio\05. Alice Coltrane - Oceanic Beloved.wav
Pre-gap length 0:00:03.49
Peak level 94.1 %
Extraction speed 3.7 X
Track quality 99.9 %
Test CRC 4EBC3F64
Copy CRC 4EBC3F64
Accurately ripped (confidence 1) [3EBBE259] (AR v2)
Copy OK
Track 6
Filename D:\music\Alice Coltrane - A Monastic Trio\06. Alice Coltrane - Atmic Peace.wav
Pre-gap length 0:00:02.74
Peak level 93.8 %
Extraction speed 4.8 X
Track quality 100.0 %
Test CRC E3B5CE18
Copy CRC E3B5CE18
Accurately ripped (confidence 1) [EC46DB9B] (AR v2)
Copy OK
All tracks accurately ripped
No errors occurred
End of status report
---- CUETools DB Plugin V2.1.6
[CTDB TOCID: lP_pjAuwKb4PEQGD7W8LbSOrV1Q-] found
Submit result: lP_pjAuwKb4PEQGD7W8LbSOrV1Q- has been confirmed
Track | CTDB Status
1 | (2/2) Accurately ripped
2 | (2/2) Accurately ripped
3 | (2/2) Accurately ripped
4 | (2/2) Accurately ripped
5 | (2/2) Accurately ripped
6 | (2/2) Accurately ripped
==== Log checksum F6F7A942E00B733339B80860966E9343DE7559C6E1A969EF35CA53D15C6F320D ====
 
Содержание индексной карты (.CUE)
REM GENRE Jazz
REM DATE 1968
REM DISCID 59091006
REM COMMENT "ExactAudioCopy v1.1"
CATALOG 4988005372048
PERFORMER "Alice Coltrane"
TITLE "A Monastic Trio"
FILE "01 - Ohnedaruth.wav" WAVE
TRACK 01 AUDIO
TITLE "Ohnedaruth"
PERFORMER "Alice Coltrane"
ISRC USMC16854500
INDEX 01 00:00:00
TRACK 02 AUDIO
TITLE "Gospel Trane"
PERFORMER "Alice Coltrane"
ISRC USMC16853800
INDEX 00 07:50:06
FILE "02 - Gospel Trane.wav" WAVE
INDEX 01 00:00:00
TRACK 03 AUDIO
TITLE "I Want to See You"
PERFORMER "Alice Coltrane"
ISRC USMC16853531
INDEX 00 06:45:41
FILE "03 - I Want to See You.wav" WAVE
INDEX 01 00:00:00
TRACK 04 AUDIO
TITLE "Lovely Sky Boat"
PERFORMER "Alice Coltrane"
ISRC USMC16853530
INDEX 00 06:42:61
FILE "04 - Lovely Sky Boat.wav" WAVE
INDEX 01 00:00:00
TRACK 05 AUDIO
TITLE "Oceanic Beloved"
PERFORMER "Alice Coltrane"
ISRC USMC16854502
INDEX 00 06:52:06
FILE "05 - Oceanic Beloved.wav" WAVE
INDEX 01 00:00:00
TRACK 06 AUDIO
TITLE "Atmic Peace"
PERFORMER "Alice Coltrane"
ISRC USMC16854503
INDEX 00 04:18:23
FILE "06 - Atmic Peace.wav" WAVE
INDEX 01 00:00:00
 
Отчет CUETools
[CUETools log; Date: 24.04.2016 19:09:06; Version: 2.1.5]
[CTDB TOCID: lP_pjAuwKb4PEQGD7W8LbSOrV1Q-] found.
Track | CTDB Status
1 | (3/3) Accurately ripped
2 | (3/3) Accurately ripped
3 | (3/3) Accurately ripped
4 | (3/3) Accurately ripped
5 | (3/3) Accurately ripped
6 | (3/3) Accurately ripped
[AccurateRip ID: 0009e259-0033dce7-59091006] found.
Track [ CRC | V2 ] Status
01 [b9f0fc3d|bb4a210e] (0+2/2) Accurately ripped
02 [9dfc55bd|021dc486] (0+2/2) Accurately ripped
03 [f9397cc9|10d5e9a5] (0+2/2) Accurately ripped
04 [4245f916|2ef13256] (0+2/2) Accurately ripped
05 [8d7e601a|3ebbe259] (0+2/2) Accurately ripped
06 [afaa6300|ec46db9b] (0+2/2) Accurately ripped
Track Peak [ CRC32 ] [W/O NULL] [ LOG ]
-- 100,0 [27C2165C] [A99062B3]
01 94,5 [B19D600C] [05CF23F4] CRC32
02 100,0 [E0240935] [91777609] CRC32
03 91,0 [19AD49B0] [7DC791CF] CRC32
04 94,3 [CE5C8525] [FA1ED8CD] CRC32
05 94,1 [4EBC3F64] [0941D093] CRC32
06 93,8 [E3B5CE18] [4520429A] CRC32
 
AllMusic Review by Thom Jurek
The CD reissue of Alice Coltrane's watershed first album after the death of her husband John has been repackaged -- and wonderfully remastered -- with an unreleased solo piano tune and two tracks from Cosmic Music added to the original album. In some cases a compendium wouldn't work, but all of it falls into place -- except for the solo "Altruvista" from 1967 at the end -- because of the chronological sequencing from January through June of 1968. There are three different sessions and two different bands at work on A Monastic Trio; the first is actually a quartet with Pharoah Sanders playing tenor, flute, and bass clarinet respectively on "Lord, Help Me to Be," "The Sun," and "Phnedaruth," with Jimmy Garrison on bass and Ben Riley on drums. The other five pieces are by a trio with Garrison and the fiery drummer Rashied Ali. Musically, the works here move from the deep bluesy modal structures that Alice Coltrane so loved in John's repertoire. Here she composes on the first three tunes for herself and Sanders. All of these works, with their deep Eastern tinges in the intervals juxtaposed against Western blues phrasing, are wondrously droning and emotional exercises. Sanders moves the music outside its frame of reference, adding his harmonic invention -- which is truly singular -- to Coltrane's blues-making, creating music that feels, anyway, as if it is somehow eternal. The five tracks with Ali and Garrison are more rooted in traditional soul-jazz and gospel themes, and made somehow exotic by the use of bells and Ali's underhanded, fluidly rolling drumming. Garrison could punch up any blues line and make it sing, and he does, especially on "Gospel Trane" and "Oceanic Beloved." "Altruvista" is an odd piece of improvisation based on whole-tone scales. It's quite beautiful and flows without a hint of forced emotion or mechanical intrusion. Really, it's a long cadenza, teetering on the edge of an abyss that thankfully never swallows it, and the perfect closer for an already fine album.
По всем вопросам пишите личное сообщение пользователю M0p94ok.
19:56
336
Нет комментариев. Ваш будет первым!