Вы используете незарегистрированную версию компонента "Вкладки"!

Поиск

(Free Jazz, Avant-Garde Jazz) [CD] Alice Coltrane - Lord of Lords - 1972 (2004 Japan Edition), FLAC (tracks+.cue), lossless

(Free Jazz, Avant-Garde Jazz) [CD] Alice Coltrane - Lord of Lords - 1972 (2004 Japan Edition), FLAC (tracks+.cue), lossless
Треклист:
Alice Coltrane - Lord of Lords
Жанр: Free Jazz, Avant-Garde Jazz
Носитель: CD
Страна-производитель диска (релиза): Япония
Год издания: 2004
Издатель (лейбл): Impulse!/Universal
Номер по каталогу: UCCI-9110
Страна исполнителя (группы): США
Аудиокодек: FLAC (*.flac)
Тип рипа: tracks+.cue
Битрейт аудио: lossless
Продолжительность: 42:19
Источник (релизер): measet (what)
Наличие сканов в содержимом раздачи: да
Треклист:
01. Andromeda's Suffering (A.Coltrane) - 9:04
02. Sri Rama Ohnedaruth (A.Coltrane) - 6:12
03. Excerpts from the Firebird (Stravinsky) - 5:46
04. Lord of Lords (A.Coltrane) - 11:18
05. Going Home (Trad.) - 9:59
Состав:
Alice Coltrane - piano, organ, harp, tympani, percussion
Charlie Haden - bass
Ben Riley - drums, percussion
String Orchestra:
Murray Adler - concertmaster
Nathan Kaproff, Lou Klass, William Henderson, Ronald Folsom, Leonard Malarsky, Gordon Marron, Janice Gower, Gerald Vinci, Sidney Sharp, James Getzoff, Bernard Kundell - violins
Myra Kestenbaum, Rollice Dale, Leonard Selic, David Schwartz, Samuel Boghosian, Marilyn Baker - violas
Jesse Ehrlich, Jerry Kessler, Jan Kelly, Anne Goodman, Edgar Lustgarten, Ray Kelley, Raphael Kramer - cellos
Recorded at The Village Recorder, Los Angeles, CA on July 5-13, 1972.
 
Лог создания рипа
Exact Audio Copy V1.1 from 23. June 2015
EAC extraction logfile from 1. April 2016, 22:29
Alice Coltrane / Lord Of Lords
Used drive : HL-DT-STDVD+-RW GS30N Adapter: 1 ID: 0
Read mode : Secure
Utilize accurate stream : Yes
Defeat audio cache : Yes
Make use of C2 pointers : No
Read offset correction : 667
Overread into Lead-In and Lead-Out : No
Fill up missing offset samples with silence : Yes
Delete leading and trailing silent blocks : No
Null samples used in CRC calculations : Yes
Used interface : Native Win32 interface for Win NT & 2000
Gap handling : Appended to previous track
Used output format : User Defined Encoder
Selected bitrate : 1024 kBit/s
Quality : High
Add ID3 tag : No
Command line compressor : C:\Program Files (x86)\Exact Audio Copy\FLAC\FLAC.EXE
Additional command line options : -6 -V -T "ARTIST=%artist%" -T "TITLE=%title%" -T "ALBUM=%albumtitle%" -T "DATE=%year%" -T "TRACKNUMBER=%tracknr%" -T "GENRE=%genre%" -T "COMMENT=%comment%" -T "BAND=%albuminterpret%" -T "ALBUMARTIST=%albuminterpret%" -T "COMPOSER=%composer%" %haslyrics%--tag-from-file=LYRICS="%lyricsfile%"%haslyrics% -T "DISCNUMBER=%cdnumber%" -T "TOTALDISCS=%totalcds%" -T "TOTALTRACKS=%numtracks%" %hascover%--picture="%coverfile%"%hascover% %source% -o %dest%
TOC of the extracted CD
Track | Start | Length | Start sector | End sector
---------------------------------------------------------
1 | 0:00.00 | 9:04.10 | 0 | 40809
2 | 9:04.10 | 6:11.52 | 40810 | 68686
3 | 15:15.62 | 5:45.43 | 68687 | 94604
4 | 21:01.30 | 11:17.55 | 94605 | 145434
5 | 32:19.10 | 9:59.15 | 145435 | 190374
Track 1
Filename D:\music\Alice Coltrane - Lord Of Lords\01. Alice Coltrane - Andromeda's Suffering.wav
Pre-gap length 0:00:02.00
Peak level 78.3 %
Extraction speed 3.0 X
Track quality 99.9 %
Test CRC BBCBE07D
Copy CRC BBCBE07D
Accurately ripped (confidence 1) [6E295FAE] (AR v2)
Copy OK
Track 2
Filename D:\music\Alice Coltrane - Lord Of Lords\02. Alice Coltrane - Sri Rama Ohnedaruth.wav
Peak level 80.3 %
Extraction speed 3.7 X
Track quality 100.0 %
Test CRC F666A5ED
Copy CRC F666A5ED
Accurately ripped (confidence 1) [060577E0] (AR v2)
Copy OK
Track 3
Filename D:\music\Alice Coltrane - Lord Of Lords\03. Alice Coltrane - Excerpts From The Firebird.wav
Peak level 72.0 %
Extraction speed 4.0 X
Track quality 100.0 %
Test CRC 2460C387
Copy CRC 2460C387
Accurately ripped (confidence 1) [670992D3] (AR v2)
Copy OK
Track 4
Filename D:\music\Alice Coltrane - Lord Of Lords\04. Alice Coltrane - Lord Of Lords.wav
Pre-gap length 0:00:04.62
Peak level 80.6 %
Extraction speed 4.7 X
Track quality 100.0 %
Test CRC BC78FABC
Copy CRC BC78FABC
Accurately ripped (confidence 1) [38DBC3E2] (AR v2)
Copy OK
Track 5
Filename D:\music\Alice Coltrane - Lord Of Lords\05. Alice Coltrane - Going Home.wav
Peak level 88.0 %
Extraction speed 5.2 X
Track quality 100.0 %
Test CRC 4FEC16DD
Copy CRC 4FEC16DD
Accurately ripped (confidence 1) [140F5F61] (AR v2)
Copy OK
All tracks accurately ripped
No errors occurred
End of status report
---- CUETools DB Plugin V2.1.6
[CTDB TOCID: 24hV7Qn.Uj9O6y6A.A8Q0T5Ivyk-] found
Submit result: 24hV7Qn.Uj9O6y6A.A8Q0T5Ivyk- has been confirmed
Track | CTDB Status
1 | (2/2) Accurately ripped
2 | (2/2) Accurately ripped
3 | (2/2) Accurately ripped
4 | (2/2) Accurately ripped
5 | (2/2) Accurately ripped
==== Log checksum 52228AC7D4110292A1815ED6D56DD27097D26E233B6CFC67D32E725A0D48C0D0 ====
 
Содержание индексной карты (.CUE)
REM GENRE Jazz
REM DATE 1972
REM DISCID 3D09EA05
REM COMMENT "ExactAudioCopy v1.1"
CATALOG 4988005372109
PERFORMER "Alice Coltrane"
TITLE "Lord of Lords"
FILE "01 - Andromeda's Suffering.wav" WAVE
TRACK 01 AUDIO
TITLE "Andromeda's Suffering"
PERFORMER "Alice Coltrane"
INDEX 01 00:00:00
FILE "02 - Sri Rama Ohnedaruth.wav" WAVE
TRACK 02 AUDIO
TITLE "Sri Rama Ohnedaruth"
PERFORMER "Alice Coltrane"
INDEX 01 00:00:00
FILE "03 - Excerpts from the Firebird.wav" WAVE
TRACK 03 AUDIO
TITLE "Excerpts from the Firebird"
PERFORMER "Alice Coltrane"
INDEX 01 00:00:00
TRACK 04 AUDIO
TITLE "Lord of Lords"
PERFORMER "Alice Coltrane"
INDEX 00 05:40:56
FILE "04 - Lord of Lords.wav" WAVE
INDEX 01 00:00:00
FILE "05 - Going Home.wav" WAVE
TRACK 05 AUDIO
TITLE "Going Home"
PERFORMER "Alice Coltrane"
INDEX 01 00:00:00
 
Отчет CUETools
[CUETools log; Date: 24.04.2016 19:24:18; Version: 2.1.5]
[CTDB TOCID: 24hV7Qn.Uj9O6y6A.A8Q0T5Ivyk-] found.
Track | CTDB Status
1 | (3/3) Accurately ripped
2 | (3/3) Accurately ripped
3 | (3/3) Accurately ripped
4 | (3/3) Accurately ripped
5 | (3/3) Accurately ripped
[AccurateRip ID: 00083d08-0026b067-3d09ea05] found.
Track [ CRC | V2 ] Status
01 [19b44f74|6e295fae] (1+1/2) Accurately ripped
02 [764eff17|060577e0] (1+1/2) Accurately ripped
03 [c3d93923|670992d3] (1+1/2) Accurately ripped
04 [c59cff48|38dbc3e2] (1+1/2) Accurately ripped
05 [5db0fc78|140f5f61] (1+1/2) Accurately ripped
Track Peak [ CRC32 ] [W/O NULL] [ LOG ]
-- 88,0 [5A2D8ABA] [AE694C89]
01 78,3 [BBCBE07D] [CA06EA6A] CRC32
02 80,3 [F666A5ED] [7CD38155] CRC32
03 72,0 [2460C387] [3DAD9ED8] CRC32
04 80,6 [BC78FABC] [422D7876] CRC32
05 88,0 [4FEC16DD] [5B2B6ADC] CRC32
 
AllMusic Review by Thom Jurek
Lord of Lords, released in 1973, was Alice Coltrane's final album for Impulse! It was the final part of a trilogy that began with Universal Consciousness and continued with the expansive World Galaxy. Like its immediate predecessors, the album features a 16-piece string orchestra that Coltrane arranged and conducted, fronted by a trio in which she plays piano, Wurlitzer organ, harp, and timpani with bassist Charlie Haden and drummer Ben Riley. Riley was familiar with the setting because he had been part of the sessions for World Galaxy. The first two pieces, "Andromeda's Suffering" and "Sri Rama Ohnedaruth" (titled after the spiritual name for her late husband, John Coltrane), are, in essence, classical works. There is little improvisation except on the piano underneath the wall of strings. They are scored for large tone clusters and minor-key drone effects, but also engage in creating timbral overtones. They are quite beautiful, yet have little or nothing to do with jazz except for the seemingly free passages toward the end of the latter track, but even these feel scored, because of the control of tension and dynamic. "Excerpts from The Firebird," which uses the organ to open the piece, features the strings playing almost (because with Alice Coltrane, she interpreted in her own way) directly from Igor Stravinsky's score. The droning organ is so gorgeous underneath those reaching strings that it's breathtaking. As to why she chose this piece as the centerpiece for her own album, she claimed that Stravinsky came to her in a vision and passed something on to her in a glass vial, a liquid that she drank!
Riley and Haden appear in earnest on the title track, a long modal piece where drones, rhythms, and time signatures are registered through the direction of Coltrane's piano and harp, creating a blissful kind of tension and dynamic. It cracks open at about six minutes, and Coltrane (on the organ), Haden, and Riley engage in some lively improvisation, with the strings offering trilling high-end swooping in the background. The set ends with Coltrane's transformation of a gospel hymn called "Going Home." Her harp introduces Riley's brushes and the strings, which in turn offer a root chord for her to play the melody and improvise upon it on the organ. Here the blues make their presence known. It offers a kind of understanding for the listener that Coltrane, no matter where this musical direction was headed (even as it went further toward the Cosmic Music she and her late husband envisioned together), continued to understand perfectly where her musical root was. The interplay between the three principals is lively and engaging, based on droning blues chords, and her soloing -- even amid flurries of notes -- comes right back to the root, and she quotes quite directly from Delta blues riffs and other gospel songs. Haden's bass is a beautiful anchor here (although mixed a bit low), and the strings offer a lovely response to her organ and harp. Riley's cymbals are shimmering shards of light throughout, ending Lord of Lords on a very high note. While it's true that Alice Coltrane's later Impulse! music may not be for everyone, even those who followed her earlier, more jazz-oriented recordings on Impulse!, it was obvious from the beginning that she was seeking to incorporate Indian classical music's drone center into her work, and was literally obsessed with the timbral, chromatic, and harmonic possibilities of strings. She succeeds here, in ending her Impulse! period with elegance, grace, and soul.
По всем вопросам пишите личное сообщение пользователю M0p94ok.
19:57
346
Нет комментариев. Ваш будет первым!