Вы используете незарегистрированную версию компонента "Вкладки"!

Поиск

(Avant-Garde Jazz, Post-Bop) [CD] Archie Shepp - Four for Trane - 1964 (2001 Japan Edition), FLAC (tracks+.cue), lossless

(Avant-Garde Jazz, Post-Bop) [CD] Archie Shepp - Four for Trane - 1964 (2001 Japan Edition), FLAC (tracks+.cue), lossless
Треклист:
Archie Shepp - Four for Trane
Жанр: Avant-Garde Jazz, Post-Bop
Носитель: CD
Страна-производитель диска (релиза): Япония
Год издания: 2001
Издатель (лейбл): Impulse!/Universal
Номер по каталогу: UCCI-9020
Страна исполнителя (группы): США
Аудиокодек: FLAC (*.flac)
Тип рипа: tracks+.cue
Битрейт аудио: lossless
Продолжительность: 37:00
Источник (релизер): measet (what)
Наличие сканов в содержимом раздачи: да
Треклист:
01. Syeeda's Song Flute (Coltrane) - 8:30
02. Mr. Syms (Coltrane) - 7:41
03. Cousin Mary (Coltrane) - 7:14
04. Niema (Coltrane) - 7:10
05. Rufus (Shepp) - 6:25
Состав:
Archie Shepp - tenor saxophone
John Tchicai - alto saxophone
Roswell Rudd - trombone
Reggie Workman - bass
Alan Shorter - flugelhorn
Charles Moffett - drums
Recorded at the Van Gelder Studio, Englewood Cliffs, NJ on August 10, 1964.
 
Лог создания рипа
Exact Audio Copy V1.1 from 23. June 2015
EAC extraction logfile from 12. April 2016, 21:11
Archie Shepp / Four For Trane
Used drive : HL-DT-STDVD+-RW GS30N Adapter: 1 ID: 0
Read mode : Secure
Utilize accurate stream : Yes
Defeat audio cache : Yes
Make use of C2 pointers : No
Read offset correction : 667
Overread into Lead-In and Lead-Out : No
Fill up missing offset samples with silence : Yes
Delete leading and trailing silent blocks : No
Null samples used in CRC calculations : Yes
Used interface : Native Win32 interface for Win NT & 2000
Gap handling : Appended to previous track
Used output format : User Defined Encoder
Selected bitrate : 1024 kBit/s
Quality : High
Add ID3 tag : No
Command line compressor : C:\Program Files (x86)\Exact Audio Copy\FLAC\FLAC.EXE
Additional command line options : -6 -V -T "ARTIST=%artist%" -T "TITLE=%title%" -T "ALBUM=%albumtitle%" -T "DATE=%year%" -T "TRACKNUMBER=%tracknr%" -T "GENRE=%genre%" -T "COMMENT=%comment%" -T "BAND=%albuminterpret%" -T "ALBUMARTIST=%albuminterpret%" -T "COMPOSER=%composer%" %haslyrics%--tag-from-file=LYRICS="%lyricsfile%"%haslyrics% -T "DISCNUMBER=%cdnumber%" -T "TOTALDISCS=%totalcds%" -T "TOTALTRACKS=%numtracks%" %hascover%--picture="%coverfile%"%hascover% %source% -o %dest%
TOC of the extracted CD
Track | Start | Length | Start sector | End sector
---------------------------------------------------------
1 | 0:00.00 | 8:30.25 | 0 | 38274
2 | 8:30.25 | 7:41.07 | 38275 | 72856
3 | 16:11.32 | 7:14.05 | 72857 | 105411
4 | 23:25.37 | 7:09.38 | 105412 | 137624
5 | 30:35.00 | 6:25.12 | 137625 | 166511
Track 1
Filename D:\music\Archie Shepp - Four For Trane\01. Archie Shepp - Syeeda's Song Flute.wav
Pre-gap length 0:00:02.00
Peak level 100.0 %
Extraction speed 3.2 X
Track quality 100.0 %
Test CRC DF2001F6
Copy CRC DF2001F6
Cannot be verified as accurate (confidence 2) [892DF1F2], AccurateRip returned [BF3AEAEF] (AR v2)
Copy OK
Track 2
Filename D:\music\Archie Shepp - Four For Trane\02. Archie Shepp - Mr. Syms.wav
Pre-gap length 0:00:02.09
Peak level 95.1 %
Extraction speed 3.8 X
Track quality 100.0 %
Test CRC ED998934
Copy CRC ED998934
Cannot be verified as accurate (confidence 2) [4743056A], AccurateRip returned [5E3FFE86] (AR v2)
Copy OK
Track 3
Filename D:\music\Archie Shepp - Four For Trane\03. Archie Shepp - Cousin Mary.wav
Pre-gap length 0:00:01.74
Peak level 94.0 %
Extraction speed 4.2 X
Track quality 100.0 %
Test CRC 2A3A444E
Copy CRC 2A3A444E
Cannot be verified as accurate (confidence 2) [18D363C8], AccurateRip returned [DC29E0C6] (AR v2)
Copy OK
Track 4
Filename D:\music\Archie Shepp - Four For Trane\04. Archie Shepp - Niema.wav
Pre-gap length 0:00:02.24
Peak level 88.3 %
Extraction speed 4.6 X
Track quality 100.0 %
Test CRC 48DAE30C
Copy CRC 48DAE30C
Cannot be verified as accurate (confidence 2) [516C1CA7], AccurateRip returned [AC812DB6] (AR v2)
Copy OK
Track 5
Filename D:\music\Archie Shepp - Four For Trane\05. Archie Shepp - Rufus.wav
Pre-gap length 0:00:01.57
Peak level 96.2 %
Extraction speed 4.4 X
Track quality 99.9 %
Test CRC 1897F1C5
Copy CRC 1897F1C5
Cannot be verified as accurate (confidence 2) [DDFDB944], AccurateRip returned [A29AF03F] (AR v2)
Copy OK
No tracks could be verified as accurate
You may have a different pressing from the one(s) in the database
No errors occurred
End of status report
---- CUETools DB Plugin V2.1.6
[CTDB TOCID: y_FibbkqOLsctkwXo9WXV1IlsGM-] found
Submit result: y_FibbkqOLsctkwXo9WXV1IlsGM- has been confirmed
Track | CTDB Status
1 | (2/2) Accurately ripped
2 | (2/2) Accurately ripped
3 | (2/2) Accurately ripped
4 | (2/2) Accurately ripped
5 | (2/2) Accurately ripped
==== Log checksum 81D4AC5226888DF7F8A84B82FF9838E327393034F31B93B4681CB9C91FEAE73E ====
 
Содержание индексной карты (.CUE)
REM GENRE Jazz
REM DATE 1964
REM DISCID 3C08AC05
REM COMMENT "ExactAudioCopy v1.1"
CATALOG 4988005271624
PERFORMER "Archie Shepp"
TITLE "Four for Trane"
FILE "01 - Syeeda's Song Flute.wav" WAVE
TRACK 01 AUDIO
TITLE "Syeeda's Song Flute"
PERFORMER "Archie Shepp"
INDEX 01 00:00:00
TRACK 02 AUDIO
TITLE "Mr. Syms"
PERFORMER "Archie Shepp"
INDEX 00 08:28:16
FILE "02 - Mr. Syms.wav" WAVE
INDEX 01 00:00:00
TRACK 03 AUDIO
TITLE "Cousin Mary"
PERFORMER "Archie Shepp"
INDEX 00 07:39:08
FILE "03 - Cousin Mary.wav" WAVE
INDEX 01 00:00:00
TRACK 04 AUDIO
TITLE "Niema"
PERFORMER "Archie Shepp"
INDEX 00 07:11:56
FILE "04 - Niema.wav" WAVE
INDEX 01 00:00:00
TRACK 05 AUDIO
TITLE "Rufus"
PERFORMER "Archie Shepp"
INDEX 00 07:07:56
FILE "05 - Rufus.wav" WAVE
INDEX 01 00:00:00
 
Отчет CUETools
[CUETools log; Date: 23.04.2016 23:26:35; Version: 2.1.5]
[CTDB TOCID: y_FibbkqOLsctkwXo9WXV1IlsGM-] found.
Track | CTDB Status
1 | (3/3) Accurately ripped
2 | (3/3) Accurately ripped
3 | (3/3) Accurately ripped
4 | (3/3) Accurately ripped
5 | (3/3) Accurately ripped
[AccurateRip ID: 0007f1e9-0024ae7f-3c08ac05] found.
Track [ CRC | V2 ] Status
01 [22611166|892df1f2] (0+0/2) No match
02 [bddf5cb8|4743056a] (0+0/2) No match
03 [77e1d310|18d363c8] (0+0/2) No match
04 [22db3500|516c1ca7] (0+0/2) No match
05 [cc0a42aa|ddfdb944] (0+0/2) No match
Offsetted by -108:
01 [6810cc47] (0/2) No match (V2 was not tested)
02 [cb564534] (0/2) No match (V2 was not tested)
03 [21ddcee4] (0/2) No match (V2 was not tested)
04 [585ea6ce] (0/2) No match (V2 was not tested)
05 [5a6f469c] (0/2) No match (V2 was not tested)
Track Peak [ CRC32 ] [W/O NULL] [ LOG ]
-- 100,0 [46C36299] [49B8A343]
01 100,0 [DF2001F6] [217BF433] CRC32
02 95,1 [ED998934] [BD8EDAD6] CRC32
03 94,0 [2A3A444E] [334C1928] CRC32
04 88,3 [48DAE30C] [CD237DB7] CRC32
05 96,2 [1897F1C5] [725B27E7] CRC32
 
AllMusic Review by Thom Jurek
From 1964, Archie Shepp's first date as a leader featured -- as one would expect from the title -- four tunes by John Coltrane, his mentor, his major influence, and his bandleader. The fact that this album holds up better than almost any of Shepp's records nearly 40 years after the fact has plenty to do with the band he chose for this session, and everything to do with the arranging skills of trombonist Roswell Rudd. The band here is Shepp on tenor, John Tchicai on alto, Rudd on trombone, Trane's bassist Reggie Workman, and Ornette Coleman's drummer Charles Moffett. Even in 1964, this was a powerhouse, beginning with a bluesed-out wailing version of "Syeeda's Song Flute." This version is ingenious, with Shepp allowing Rudd to arrange for solos for himself and Tchicai up front and Rudd punching in the blues and gospel in the middle, before giving way to double time by Workman and Moffett. The rawness of the whole thing is so down-home you're ready to tell someone to pass the butter beans when listening. Rudd's arrangement of "Naima" is also stunningly beautiful: He reharmonizes the piece for the mid-register tone of Shepp, who does his best Ben Webster and adds a microtonal tag onto the front and back, dislocating the tune before it begins and after it ends, while keeping it just out of the range of the consonant throughout. Wonderful! The only Shepp original here is "Rufus (Swung, His Face at Last to the Wind, Then His Neck Snapped)." It's not a terribly sophisticated tune, but it works in the context of this band largely because of the soloing prowess of all the members -- particularly Tchicai -- here. There is barely any melody, the key changes are commensurate with tempo shifts, and the harmonics are of the sliding scale variety. Still, there are the blues; no one can dig into them and honk them better than Shepp. When it came to sheer exuberance and expression, he was a force to be reckoned with in his youth, and it shows in each of the tunes recorded here. Four for Trane is a truly fine, original, and lasting album from an under-celebrated musician.
(Avant-Garde Jazz, Free Improvisation) [CD] Archie Shepp - Four For Trane {1964} - 1997, FLAC (tracks+.cue), lossless
По всем вопросам пишите личное сообщение пользователю M0p94ok.
19:53
358
Нет комментариев. Ваш будет первым!