Вы используете незарегистрированную версию компонента "Вкладки"!

Поиск

(Free Jazz / Jazz Big Band / Jazz-Rock) [CD] Flat Earth Society - 13 - 2013, FLAC (tracks+.cue), lossless

(Free Jazz / Jazz Big Band / Jazz-Rock) [CD] Flat Earth Society - 13 - 2013, FLAC (tracks+.cue), lossless
Треклист:
Flat Earth Society / 13
Жанр: Free Jazz / Jazz Big Band / Jazz-Rock
Носитель: CD
Страна-производитель диска (релиза): Belgium
Год издания: 2013
Издатель (лейбл): IGLOO Records
Номер по каталогу: IGL239
Страна исполнителя (группы): Belgium
Аудиокодек: FLAC (*.flac)
Тип рипа: tracks+.cue
Битрейт аудио: lossless
Продолжительность: 72:12 min
Источник (релизер): свой рип с CD
Наличие сканов в содержимом раздачи:
Треклист:
1. Experiments In The Revival Of Organisms. 6:31
2. Sneak Attack Of The Sponges. 3:50
3. Patsy. 5:11
4. Fast Forward. 4:21
5. Six Pine Trees. 3:57
6. Stoptime Rag. 3:49
7. Raincheck. 11:36
8. Intersections. 4:26
9. Goat's Wool Without Abbas. 6:34
10. Betwixt & Between. 4:04
11. Unconditional Lucifer. 4:53
12. Meet Luke Devereaux. 5:27
13. Domination Of Black. 7:28
 
Лог создания рипа
Exact Audio Copy V1.0 beta 4 from 7. December 2014
EAC extraction logfile from 20. April 2016, 13:55
Flat Earth Society / 13
Used drive : Optiarc DVD RW AD-5260S Adapter: 1 ID: 1
Read mode : Secure
Utilize accurate stream : Yes
Defeat audio cache : Yes
Make use of C2 pointers : No
Read offset correction : 48
Overread into Lead-In and Lead-Out : No
Fill up missing offset samples with silence : Yes
Delete leading and trailing silent blocks : No
Null samples used in CRC calculations : Yes
Used interface : Native Win32 interface for Win NT & 2000
Gap handling : Appended to previous track
Used output format : Internal WAV Routines
Sample format : 44.100 Hz; 16 Bit; Stereo
TOC of the extracted CD
Track | Start | Length | Start sector | End sector
---------------------------------------------------------
1 | 0:00.00 | 6:33.44 | 0 | 29518
2 | 6:33.44 | 3:52.15 | 29519 | 46933
3 | 10:25.59 | 5:13.26 | 46934 | 70434
4 | 15:39.10 | 4:24.15 | 70435 | 90249
5 | 20:03.25 | 3:58.37 | 90250 | 108136
6 | 24:01.62 | 3:51.48 | 108137 | 125509
7 | 27:53.35 | 11:36.34 | 125510 | 177743
8 | 39:29.69 | 4:27.44 | 177744 | 197812
9 | 43:57.38 | 6:34.46 | 197813 | 227408
10 | 50:32.09 | 4:04.63 | 227409 | 245771
11 | 54:36.72 | 4:39.44 | 245772 | 266740
12 | 59:16.41 | 5:27.42 | 266741 | 291307
13 | 64:44.08 | 7:28.63 | 291308 | 324970
Track 1
Filename C:\_EAC\01 Experiments In The Revival of Organisms.wav
Pre-gap length 0:00:02.00
Peak level 100.0 %
Extraction speed 1.1 X
Track quality 100.0 %
Test CRC ECDFD06E
Copy CRC ECDFD06E
Accurately ripped (confidence 6) [07D6E939] (AR v2)
Copy OK
Track 2
Filename C:\_EAC\02 Sneak Attack Of The Sponges.wav
Pre-gap length 0:00:01.58
Peak level 100.0 %
Extraction speed 1.1 X
Track quality 100.0 %
Test CRC 14C549D3
Copy CRC 14C549D3
Accurately ripped (confidence 6) [26A9A204] (AR v2)
Copy OK
Track 3
Filename C:\_EAC\03 Patsy.wav
Pre-gap length 0:00:02.02
Peak level 100.0 %
Extraction speed 1.1 X
Track quality 100.0 %
Test CRC 80D5FCB8
Copy CRC 80D5FCB8
Accurately ripped (confidence 6) [E9BA8F80] (AR v2)
Copy OK
Track 4
Filename C:\_EAC\04 Fast Forward.wav
Pre-gap length 0:00:02.24
Peak level 100.0 %
Extraction speed 1.1 X
Track quality 100.0 %
Test CRC A1966452
Copy CRC A1966452
Accurately ripped (confidence 6) [1EF4EF3D] (AR v2)
Copy OK
Track 5
Filename C:\_EAC\05 Six Pine Trees.wav
Pre-gap length 0:00:03.20
Peak level 95.3 %
Extraction speed 1.1 X
Track quality 100.0 %
Test CRC 4E36740F
Copy CRC 4E36740F
Accurately ripped (confidence 6) [F246BF15] (AR v2)
Copy OK
Track 6
Filename C:\_EAC\06 Stoptime Rag.wav
Pre-gap length 0:00:01.30
Peak level 100.0 %
Extraction speed 1.0 X
Track quality 100.0 %
Test CRC F939F717
Copy CRC F939F717
Accurately ripped (confidence 6) [19D4BE15] (AR v2)
Copy OK
Track 7
Filename C:\_EAC\07 Raincheck.wav
Pre-gap length 0:00:01.96
Peak level 100.0 %
Extraction speed 1.2 X
Track quality 100.0 %
Test CRC FA92FAEF
Copy CRC FA92FAEF
Accurately ripped (confidence 6) [58C77908] (AR v2)
Copy OK
Track 8
Filename C:\_EAC\08 Intersections.wav
Peak level 100.0 %
Extraction speed 1.0 X
Track quality 99.9 %
Test CRC 377F70F2
Copy CRC 377F70F2
Accurately ripped (confidence 6) [35F01AB1] (AR v2)
Copy OK
Track 9
Filename C:\_EAC\09 Goat's Wool Without Abbas.wav
Pre-gap length 0:00:01.04
Peak level 100.0 %
Extraction speed 1.1 X
Track quality 100.0 %
Test CRC 7A28966A
Copy CRC 7A28966A
Accurately ripped (confidence 6) [77994924] (AR v2)
Copy OK
Track 10
Filename C:\_EAC\10 Betwixt & Between.wav
Pre-gap length 0:00:00.61
Peak level 100.0 %
Extraction speed 1.1 X
Track quality 100.0 %
Test CRC 846C965E
Copy CRC 846C965E
Accurately ripped (confidence 6) [5162157B] (AR v2)
Copy OK
Track 11
Filename C:\_EAC\11 Unconditional Lucifer.wav
Pre-gap length 0:00:00.65
Peak level 99.6 %
Extraction speed 1.1 X
Track quality 100.0 %
Test CRC B4B284D7
Copy CRC B4B284D7
Accurately ripped (confidence 6) [585BEA05] (AR v2)
Copy OK
Track 12
Filename C:\_EAC\12 Meet Luke Devereaux.wav
Peak level 100.0 %
Extraction speed 1.1 X
Track quality 100.0 %
Test CRC 7E128226
Copy CRC 7E128226
Accurately ripped (confidence 6) [5CA0257A] (AR v2)
Copy OK
Track 13
Filename C:\_EAC\13 Domination Of Black.wav
Pre-gap length 0:00:00.12
Peak level 100.0 %
Extraction speed 1.0 X
Track quality 99.9 %
Test CRC 38311086
Copy CRC 38311086
Accurately ripped (confidence 6) [7D58762B] (AR v2)
Copy OK
All tracks accurately ripped
No errors occurred
End of status report
---- CUETools DB Plugin V2.1.4
[CTDB TOCID: 7ANVko4urlijsGbABWfwqrY.86Q-] found
Submit result: 7ANVko4urlijsGbABWfwqrY.86Q- has been confirmed
Track | CTDB Status
1 | (7/7) Accurately ripped
2 | (7/7) Accurately ripped
3 | (7/7) Accurately ripped
4 | (7/7) Accurately ripped
5 | (7/7) Accurately ripped
6 | (7/7) Accurately ripped
7 | (7/7) Accurately ripped
8 | (7/7) Accurately ripped
9 | (7/7) Accurately ripped
10 | (7/7) Accurately ripped
11 | (7/7) Accurately ripped
12 | (7/7) Accurately ripped
13 | (7/7) Accurately ripped
==== Log checksum F7EAA13E55597EDFA1CD0BBA81E94674AEAA99FF1F4C9A08BC015EDD56A806D2 ====
 
Содержание индексной карты (.CUE)
REM GENRE "Jazz Big Band"
REM DATE 2013
REM DISCID C410EC0D
REM COMMENT "ExactAudioCopy v1.0b4"
PERFORMER "Flat Earth Society"
TITLE "13"
FILE "01 Experiments In The Revival of Organisms.wav" WAVE
TRACK 01 AUDIO
TITLE "Experiments In The Revival of Organisms"
PERFORMER "Flat Earth Society"
INDEX 01 00:00:00
TRACK 02 AUDIO
TITLE "Sneak Attack Of The Sponges"
PERFORMER "Flat Earth Society"
INDEX 00 06:32:00
FILE "02 Sneak Attack Of The Sponges.wav" WAVE
INDEX 01 00:00:00
TRACK 03 AUDIO
TITLE "Patsy"
PERFORMER "Flat Earth Society"
INDEX 00 03:50:13
FILE "03 Patsy.wav" WAVE
INDEX 01 00:00:00
TRACK 04 AUDIO
TITLE "Fast Forward"
PERFORMER "Flat Earth Society"
INDEX 00 05:11:08
FILE "04 Fast Forward.wav" WAVE
INDEX 01 00:00:00
TRACK 05 AUDIO
TITLE "Six Pine Trees"
PERFORMER "Flat Earth Society"
INDEX 00 04:21:00
FILE "05 Six Pine Trees.wav" WAVE
INDEX 01 00:00:00
TRACK 06 AUDIO
TITLE "Stoptime Rag"
PERFORMER "Flat Earth Society"
INDEX 00 03:57:14
FILE "06 Stoptime Rag.wav" WAVE
INDEX 01 00:00:00
TRACK 07 AUDIO
TITLE "Raincheck"
PERFORMER "Flat Earth Society"
INDEX 00 03:49:51
FILE "07 Raincheck.wav" WAVE
INDEX 01 00:00:00
FILE "08 Intersections.wav" WAVE
TRACK 08 AUDIO
TITLE "Intersections"
PERFORMER "Flat Earth Society"
INDEX 01 00:00:00
TRACK 09 AUDIO
TITLE "Goat's Wool Without Abbas"
PERFORMER "Flat Earth Society"
INDEX 00 04:26:41
FILE "09 Goat's Wool Without Abbas.wav" WAVE
INDEX 01 00:00:00
TRACK 10 AUDIO
TITLE "Betwixt & Between"
PERFORMER "Flat Earth Society"
INDEX 00 06:34:00
FILE "10 Betwixt & Between.wav" WAVE
INDEX 01 00:00:00
TRACK 11 AUDIO
TITLE "Unconditional Lucifer"
PERFORMER "Flat Earth Society"
INDEX 00 04:04:14
FILE "11 Unconditional Lucifer.wav" WAVE
INDEX 01 00:00:00
FILE "12 Meet Luke Devereaux.wav" WAVE
TRACK 12 AUDIO
TITLE "Meet Luke Devereaux"
PERFORMER "Flat Earth Society"
INDEX 01 00:00:00
TRACK 13 AUDIO
TITLE "Domination Of Black"
PERFORMER "Flat Earth Society"
INDEX 00 05:27:33
FILE "13 Domination Of Black.wav" WAVE
INDEX 01 00:00:00
 
Лог проверки качества
-----------------------
DON'T MODIFY THIS FILE
-----------------------
PERFORMER: auCDtect Task Manager, ver. 1.6.0 RC1 build 1.6.0.1
Copyright (c) 2008-2010 y-soft. All rights reserved
http://y-soft.org
ANALYZER: auCDtect: CD records authenticity detector, version 0.8.2
Copyright (c) 2004 Oleg Berngardt. All rights reserved.
Copyright (c) 2004 Alexander Djourik. All rights reserved.
FILE: 01. Experiments In The Revival Of Organisms.flac
Size: 42725631 Hash: DD96076932455C596E2950B3EA953F1B Accuracy: -m0
Conclusion: CDDA 100%
Signature: 05E98603CCF918A6A871F5D63D8F0F5DB6A569BE
FILE: 02. Sneak Attack Of The Sponges.flac
Size: 27957108 Hash: C6C745C1B1AC77FFA184F4513DB616A7 Accuracy: -m0
Conclusion: CDDA 100%
Signature: 3AF808B2639CAD4ABA488191F03CAF4C812A8E1A
FILE: 03. Patsy.flac
Size: 32149349 Hash: C427D02381742871A044375D89846AFA Accuracy: -m0
Conclusion: CDDA 100%
Signature: 947498A1564143812B737C8A7BD1259E7A67550D
FILE: 04. Fast Forward.flac
Size: 33493382 Hash: 1B5F5D6D158549F906010550E029AC50 Accuracy: -m0
Conclusion: CDDA 100%
Signature: 6CFC65E60772ED50D75C3A825CCF3B65E7779358
FILE: 05. Six Pine Trees.flac
Size: 20956720 Hash: 4E96BAF7E7F00DA180D3877C23313F60 Accuracy: -m0
Conclusion: CDDA 100%
Signature: B5524246932AED040E33694C40C90EC99FF11D55
FILE: 06. Stoptime Rag.flac
Size: 23091625 Hash: A5E7A67E1E4063954DA5C02277433D59 Accuracy: -m0
Conclusion: CDDA 100%
Signature: 7F589CE0AE9E79DC90B1247320A05EAC59987C9C
FILE: 07. Raincheck.flac
Size: 69680771 Hash: 299EA007A854E8B6427A86D4F05A2886 Accuracy: -m0
Conclusion: CDDA 100%
Signature: 393E4E81D9D13E3B60F7661A70227D2E44074F4F
FILE: 08. Intersections.flac
Size: 29111323 Hash: 735E8BD22C404D4B23C4BC8E4E91321B Accuracy: -m0
Conclusion: CDDA 100%
Signature: D50C848A7419F75FC974CDDF5DCFA9B1EA60E650
FILE: 09. Goat's Wool Without Abbas.flac
Size: 46662447 Hash: CB7EB732C16E135E3CE4D49B7BF4BE75 Accuracy: -m0
Conclusion: CDDA 100%
Signature: E12F5E35239D7EE340A25C4C3DF5626F002C9BE8
FILE: 10. Betwixt & Between.flac
Size: 30128837 Hash: 6CCF12425BAB04BFE44AD7643D674F18 Accuracy: -m0
Conclusion: CDDA 99%
Signature: 9C20C1B8FF21444B9B8F13C26D8876EEC6331C9F
FILE: 11. Unconditional Lucifer.flac
Size: 26935612 Hash: E8EF0CB662C9DE67A09240F159E4BE78 Accuracy: -m0
Conclusion: CDDA 100%
Signature: 5A19540B3ECAE759065F063E9997E0D25D70CCEC
FILE: 12. Meet Luke Devereaux.flac
Size: 34566869 Hash: 33C6E54874EE71E5386976DCD5AEC490 Accuracy: -m0
Conclusion: CDDA 100%
Signature: 4302CC41F2EB5F23570B0A154C16E351936E2686
FILE: 13. Domination Of Black.flac
Size: 52478630 Hash: 1E186FEB1355B1551E31BD54AE93D89C Accuracy: -m0
Conclusion: CDDA 100%
Signature: 01FEB9EFE150FB91DF3B9C63D51E80DF72602EE3
 
Об альбоме (сборнике)
All tracks composed and arranged by Peter Vermeersch, exept track 8
by Tom Dissevelt and track 6 by Scott Joplin
Recorded by Walter De Niel at Studio TOOTS - VRT, Brussels on February 21-24, 2012
3 - Recorded by Wannes Gonnissen at The Academy of Music, Пруте on October 15, 2009
11 - Recorded by at Homes, John Watts' voice by Skype
Mixed & Mastered by Pierre Vervloesem at Studio FIASCO, Brussels
Produced by Peter Vermeersch
 
Состав
- Peter Vermeersch / clarinet
- Peter Vandenberghe / piano & keyboards
- Kristof Roseeuw / double bass
- Pierre Vervloesem / guitar
- Tom Wouters / clarinet & vibraphone
- Stefan Blanke / trombone
- Benjamin Boutreur / alto sax
- Berlinde Deman / bass tuba
- Bart Maris / trumpet
- Mighel Mast / tenor sax
- Marc Meeuwissen / trombone
- Luc Van Lieshout / trumpet
- Bruno Vansina / baritone sax
- Win Willaert / accordion & vocals
- Teun Verbruggen / drums
Guest:
- John Watts / vocals (3,11)
По всем вопросам пишите личное сообщение пользователю M0p94ok.
19:52
252
Нет комментариев. Ваш будет первым!