Вы используете незарегистрированную версию компонента "Вкладки"!

Поиск

(Free Jazz, Avant-garde, Funk) Kondo Toshinori & IMA - Human Market (32XA-209) - 1988, FLAC (image+.cue), lossless

(Free Jazz, Avant-garde, Funk) Kondo Toshinori & IMA - Human Market (32XA-209) - 1988, FLAC (image+.cue), lossless
Треклист:
Kondo Toshinori & IMA / Human Market (32XA-209)
Жанр: Free Jazz, Avant-garde, Funk
Страна-производитель диска: Japan
Год издания диска: 1988
Издатель (лейбл): Alfa Records
Номер по каталогу: 32XA-209
Страна: Japan
Аудиокодек: FLAC (*.flac)
Тип рипа: image+.cue
Битрейт аудио: lossless
Продолжительность: 39:03
Источник (релизер): Rip с фирменного CD из собственной коллекции.
Наличие сканов в содержимом раздачи: да
Треклист:
1. Last Lost 5:43
2. Banana Plantation 5:26
3. Yellow Flag 4:51
4. H-Woman 4:38
5. Tokyo Girl 4:52
6. Moon Noom 4:35
7. Hoppoh 6:06
8. A Town In Your Heart 3:45
 
Лог создания рипа
Exact Audio Copy V0.99 prebeta 5 from 4. May 2009
Отчёт EAC об извлечении, выполненном 8. августа 2010, 8:13
Kondo Toshinori & IMA / Human Market
Дисковод: MATSHITABD-MLT UJ-210S Adapter: 0 ID: 0
Режим чтения : Достоверность
Использование точного потока : Да
Отключение кэша аудио : Да
Использование указателей C2 : Нет
Коррекция смещения при чтении : 102
Способность читать области Lead-in и Lead-out : Нет
Заполнение пропущенных сэмплов тишиной : Да
Удаление блоков с тишиной в начале и конце : Нет
При вычислениях CRC использовались нулевые сэмплы : Да
Интерфейс : Встроенный Win32-интерфейс для Win NT/2000
Выходной формат : Внутренние WAV-операции
Формат сэмплов : 44.100 Гц; 16 бит; стерео
TOC извлечённого CD
Трек | Старт | Длительность | Начальный сектор | Конечный сектор
---------------------------------------------------------------------
1 | 0:00.00 | 5:45.32 | 0 | 25906
2 | 5:45.32 | 5:26.40 | 25907 | 50396
3 | 11:11.72 | 4:51.63 | 50397 | 72284
4 | 16:03.60 | 4:38.32 | 72285 | 93166
5 | 20:42.17 | 4:52.53 | 93167 | 115119
6 | 25:34.70 | 4:34.65 | 115120 | 135734
7 | 30:09.60 | 6:07.52 | 135735 | 163311
8 | 36:17.37 | 3:45.30 | 163312 | 180216
Характеристики диапазона извлечения и сообщения об ошибках
Выбранный диапазон
Имя файла J:\temp\Kondo Toshinori & IMA - Human Market.wav
Пиковый уровень 100.0 %
Качество диапазона 100.0 %
CRC теста CD7F99BF
CRC копии CD7F99BF
Копирование... OK
Ошибок не произошло
AccurateRip: сводка
Трек 1 нет в базе данных
Трек 2 нет в базе данных
Трек 3 нет в базе данных
Трек 4 нет в базе данных
Трек 5 нет в базе данных
Трек 6 нет в базе данных
Трек 7 нет в базе данных
Трек 8 нет в базе данных
Ни одного трека нет в базе AccurateRip
Конец отчёта
 
Об исполнителе (группе)
Kondo Toshinori & IMA :
Toshinori Kondo - trumpet,vocal
Reck - electric guitar
Taizo Sakai - electric guitar,electric bass
Haruo Togashi - keyboards
Hideo Yamaki - drums,percussion
Any questions -> support@pro-jazz.com. По всем вопросам пишите -> support@pro-jazz.com
21:14
149
Нет комментариев. Ваш будет первым!