Вы используете незарегистрированную версию компонента "Вкладки"!

Поиск

(Avant-Garde Jazz, Free Improvisation) Marilyn Crispell and Gerry Hemingway - Affinities - 2011, FLAC (tracks+.cue), lossless

(Avant-Garde Jazz, Free Improvisation) Marilyn Crispell and Gerry Hemingway - Affinities - 2011, FLAC (tracks+.cue), lossless
Треклист:
•Marilyn Crispell and Gerry Hemingway - Affinities•
Жанр: Avant-Garde Jazz, Free Improvisation
Год издания диска: 2011
Издатель (лейбл): Intakt Records
Номер по каталогу: Intakt CD177
Аудиокодек: FLAC (*.flac)
Тип рипа: tracks+.cue
Битрейт аудио: lossless
Продолжительность: 00:58:47
Источник (релизер): shummuhs
Наличие сканов в содержимом раздачи: да
Треклист:
01. Shear Shift 14:15
02. Axial Flows 8:06
03. Starlings 10:35
04. Threadings 8:32
05. Air 7:48
06. Permeations 3:58
07. Finis 5:34
Personnel:
Marilyn Crispell - Piano
Gerry Hemingway - Drums, Percussion, Vibraphone
 
Лог создания рипа
Exact Audio Copy V1.0 beta 3 from 29. August 2011
EAC extraction logfile from 12. January 2012, 9:53
Marilyn Crispell and Gerry Hemingway / Affinities
Used drive : PLEXTOR DVDR PX-860A Adapter: 0 ID: 0
Read mode : Secure
Utilize accurate stream : Yes
Defeat audio cache : Yes
Make use of C2 pointers : No
Read offset correction : 96
Overread into Lead-In and Lead-Out : No
Fill up missing offset samples with silence : Yes
Delete leading and trailing silent blocks : No
Null samples used in CRC calculations : Yes
Used interface : Native Win32 interface for Win NT & 2000
Gap handling : Appended to previous track
Used output format : User Defined Encoder
Selected bitrate : 1024 kBit/s
Quality : High
Add ID3 tag : No
Command line compressor : C:\Program Files\Exact Audio Copy 3\Flac\flac.exe
Additional command line options : -8 -V -T "ARTIST=%artist%" -T "TITLE=%title%" -T "ALBUM=%albumtitle%" -T "DATE=%year%" -T "TRACKNUMBER=%tracknr%" -T "GENRE=%genre%" -T "PERFORMER=%albuminterpret%" -T "COMPOSER=%composer%" %haslyrics%--tag-from-file=LYRICS="%lyricsfile%"%haslyrics% -T "ALBUMARTIST=%albumartist%" -T "DISCNUMBER=%cdnumber%" -T "TOTALDISCS=%totalcds%" -T "TOTALTRACKS=%numtracks%" -T "COMMENT=%comment%" %source% -o %dest%
TOC of the extracted CD
Track | Start | Length | Start sector | End sector
---------------------------------------------------------
1 | 0:00.00 | 14:15.08 | 0 | 64132
2 | 14:15.08 | 8:06.70 | 64133 | 100652
3 | 22:22.03 | 10:34.72 | 100653 | 148274
4 | 32:57.00 | 8:32.32 | 148275 | 186706
5 | 41:29.32 | 7:48.38 | 186707 | 221844
6 | 49:17.70 | 3:58.29 | 221845 | 239723
7 | 53:16.24 | 5:34.03 | 239724 | 264776
Track 1
Filename S:\DL\Marilyn Crispell and Gerry Hemingway - Affinities (2011) [FLAC]\01 - Shear Shift.wav
Pre-gap length 0:00:02.00
Peak level 97.0 %
Extraction speed 5.4 X
Track quality 100.0 %
Test CRC 1B1AFE6F
Copy CRC 1B1AFE6F
Accurately ripped (confidence 1) [D441A38D] (AR v2)
Copy OK
Track 2
Filename S:\DL\Marilyn Crispell and Gerry Hemingway - Affinities (2011) [FLAC]\02 - Axial Flows.wav
Pre-gap length 0:00:05.04
Peak level 70.4 %
Extraction speed 6.3 X
Track quality 100.0 %
Test CRC 07F2F713
Copy CRC 07F2F713
Accurately ripped (confidence 1) [E649FD1D] (AR v2)
Copy OK
Track 3
Filename S:\DL\Marilyn Crispell and Gerry Hemingway - Affinities (2011) [FLAC]\03 - Starlings.wav
Pre-gap length 0:00:05.17
Peak level 82.5 %
Extraction speed 7.2 X
Track quality 100.0 %
Test CRC 65BA2D9C
Copy CRC 65BA2D9C
Accurately ripped (confidence 1) [4F175D06] (AR v2)
Copy OK
Track 4
Filename S:\DL\Marilyn Crispell and Gerry Hemingway - Affinities (2011) [FLAC]\04 - Threadings.wav
Pre-gap length 0:00:05.08
Peak level 97.1 %
Extraction speed 7.7 X
Track quality 100.0 %
Test CRC 8FBA3792
Copy CRC 8FBA3792
Accurately ripped (confidence 1) [309D5FDC] (AR v2)
Copy OK
Track 5
Filename S:\DL\Marilyn Crispell and Gerry Hemingway - Affinities (2011) [FLAC]\05 - Air.wav
Pre-gap length 0:00:05.06
Peak level 70.7 %
Extraction speed 8.1 X
Track quality 100.0 %
Test CRC 9BCFEA24
Copy CRC 9BCFEA24
Accurately ripped (confidence 1) [5C96D835] (AR v2)
Copy OK
Track 6
Filename S:\DL\Marilyn Crispell and Gerry Hemingway - Affinities (2011) [FLAC]\06 - Permeations.wav
Pre-gap length 0:00:01.49
Peak level 53.1 %
Extraction speed 7.1 X
Track quality 99.9 %
Test CRC 74A1815A
Copy CRC 74A1815A
Accurately ripped (confidence 1) [45EC84F8] (AR v2)
Copy OK
Track 7
Filename S:\DL\Marilyn Crispell and Gerry Hemingway - Affinities (2011) [FLAC]\07 - Finis.wav
Pre-gap length 0:00:03.00
Peak level 61.3 %
Extraction speed 8.3 X
Track quality 100.0 %
Test CRC 0097655B
Copy CRC 0097655B
Accurately ripped (confidence 1) [4A4D08F1] (AR v2)
Copy OK
All tracks accurately ripped
No errors occurred
End of status report
---- CUETools DB Plugin V2.1.3
[CTDB TOCID: d39jyuVIh5CXtW72iXQQ4HbtgBY-] disk not present in database, Submit result: database access error: The request was aborted: The request was canceled.
==== Log checksum A361BC6485C2832BC98B23A7B58843BA7159F800EDB15A2312FD2494EE462EF1 ====
 
Содержание индексной карты (.CUE)
REM GENRE Jazz
REM DATE 2011
REM DISCID 7A0DCA07
REM COMMENT "ExactAudioCopy v1.0b3"
CATALOG 7640120191771
PERFORMER "Marilyn Crispell and Gerry Hemingway"
TITLE "Affinities"
FILE "01 - Shear Shift.wav" WAVE
TRACK 01 AUDIO
TITLE "Shear Shift"
PERFORMER "Marilyn Crispell and Gerry Hemingway"
ISRC CH2701101341
INDEX 01 00:00:00
TRACK 02 AUDIO
TITLE "Axial Flows"
PERFORMER "Marilyn Crispell and Gerry Hemingway"
ISRC CH2701101342
INDEX 00 14:10:05
FILE "02 - Axial Flows.wav" WAVE
INDEX 01 00:00:00
TRACK 03 AUDIO
TITLE "Starlings"
PERFORMER "Marilyn Crispell and Gerry Hemingway"
ISRC CH2701101343
INDEX 00 08:01:57
FILE "03 - Starlings.wav" WAVE
INDEX 01 00:00:00
TRACK 04 AUDIO
TITLE "Threadings"
PERFORMER "Marilyn Crispell and Gerry Hemingway"
ISRC CH2701101344
INDEX 00 10:29:66
FILE "04 - Threadings.wav" WAVE
INDEX 01 00:00:00
TRACK 05 AUDIO
TITLE "Air"
PERFORMER "Marilyn Crispell and Gerry Hemingway"
ISRC CH2701101345
INDEX 00 08:27:27
FILE "05 - Air.wav" WAVE
INDEX 01 00:00:00
TRACK 06 AUDIO
TITLE "Permeations"
PERFORMER "Marilyn Crispell and Gerry Hemingway"
ISRC CH2701101346
INDEX 00 07:47:01
FILE "06 - Permeations.wav" WAVE
INDEX 01 00:00:00
TRACK 07 AUDIO
TITLE "Finis"
PERFORMER "Marilyn Crispell and Gerry Hemingway"
ISRC CH2701101347
INDEX 00 03:55:29
FILE "07 - Finis.wav" WAVE
INDEX 01 00:00:00
Any questions -> support@pro-jazz.com. По всем вопросам пишите -> support@pro-jazz.com
21:14
125
Нет комментариев. Ваш будет первым!