Вы используете незарегистрированную версию компонента "Вкладки"!

Поиск

(Free Jazz, Free Improvisation) 阿部薫 (Kaoru Abe) - 光輝く忍耐 (Hikari Kagayaku Nintai) - 1994 (1972), FLAC (tracks+.cue), lossless

(Free Jazz, Free Improvisation) 阿部薫 (Kaoru Abe) - 光輝く忍耐 (Hikari Kagayaku Nintai) - 1994 (1972), FLAC (tracks+.cue), lossless
Треклист:
阿部薫 / 光輝く忍耐
Solo 1972.4.11
Жанр: Free Jazz, Free Improvisation
Страна-производитель диска: Япония
Год издания диска: 1994
Издатель (лейбл): P.S.F. Records
Номер по каталогу: PSFD-46
Страна: Япония
Аудиокодек: FLAC (*.flac)
Тип рипа: tracks+.cue
Битрейт аудио: lossless
Продолжительность: 51:41
Источник (релизер): вот.сиди (dashdash1)
Наличие сканов в содержимом раздачи: да
Треклист:
1 1972.4.11 Alto 1 14:32
2 1972.4.11 Alto 2 16:36
3 1972.4.11 Alto 3 20:31
Recorded on April 11, 1972 at Pulcinella (プルチネラ), Shibuya, Tokyo.
 
Лог создания рипа
Exact Audio Copy V1.0 beta 3 from 29. August 2011
EAC extraction logfile from 17. January 2012, 20:12
Kaoru Abe / Solo 1972.4.11 Hikari Kagayaku Nintai
Used drive : Optiarc DVD RW AD-7585H Adapter: 0 ID: 1
Read mode : Secure
Utilize accurate stream : Yes
Defeat audio cache : Yes
Make use of C2 pointers : No
Read offset correction : 6
Overread into Lead-In and Lead-Out : No
Fill up missing offset samples with silence : Yes
Delete leading and trailing silent blocks : No
Null samples used in CRC calculations : Yes
Used interface : Native Win32 interface for Win NT & 2000
Gap handling : Appended to previous track
Used output format : User Defined Encoder
Selected bitrate : 128 kBit/s
Quality : High
Add ID3 tag : No
Command line compressor : C:\Program Files (x86)\Exact Audio Copy\Flac\flac.exe
Additional command line options : -8 -V -T "ARTIST=%artist%" -T "TITLE=%title%" -T "ALBUM=%albumtitle%" -T "DATE=%year%" -T "TRACKNUMBER=%tracknr%" -T "GENRE=%genre%" -T "PERFORMER=%albuminterpret%" -T "COMPOSER=%composer%" %haslyrics%--tag-from-file=LYRICS="%lyricsfile%"%haslyrics% -T "ALBUMARTIST=%albumartist%" -T "DISCNUMBER=%cdnumber%" -T "TOTALDISCS=%totalcds%" -T "TOTALTRACKS=%numtracks%" -T "COMMENT=EAC V1.0 beta 3, Secure Mode, Test & Copy, AccurateRip, FLAC -8" %source% -o %dest%
TOC of the extracted CD
Track | Start | Length | Start sector | End sector
---------------------------------------------------------
1 | 0:00.00 | 14:32.27 | 0 | 65426
2 | 14:32.27 | 16:36.25 | 65427 | 140151
3 | 31:08.52 | 20:31.73 | 140152 | 232549
Track 1
Filename C:\EAC Rips\01 - 1972.4.11 Alto 1.wav
Pre-gap length 0:00:02.00
Peak level 98.6 %
Extraction speed 3.4 X
Track quality 100.0 %
Test CRC 77B62388
Copy CRC 77B62388
Cannot be verified as accurate (confidence 1) [5623CF7F], AccurateRip returned [0F442CBC] (AR v2)
Copy OK
Track 2
Filename C:\EAC Rips\02 - 1972.4.11 Alto 2.wav
Pre-gap length 0:00:01.00
Peak level 100.0 %
Extraction speed 4.3 X
Track quality 99.9 %
Test CRC 5E343D95
Copy CRC 5E343D95
Cannot be verified as accurate (confidence 1) [4F992550], AccurateRip returned [882D6F8D] (AR v2)
Copy OK
Track 3
Filename C:\EAC Rips\03 - 1972.4.11 Alto 3.wav
Pre-gap length 0:00:01.00
Peak level 100.0 %
Extraction speed 5.3 X
Track quality 100.0 %
Test CRC A830E1CA
Copy CRC A830E1CA
Cannot be verified as accurate (confidence 1) [355F66B1], AccurateRip returned [6FE18E46] (AR v2)
Copy OK
No tracks could be verified as accurate
You may have a different pressing from the one(s) in the database
No errors occurred
End of status report
---- CUETools DB Plugin V2.1.3
[CTDB TOCID: 1aQbsfQ_L21wDIbcXmzdRkDjFfY-] disk not present in database, Submit result: 1aQbsfQ_L21wDIbcXmzdRkDjFfY- has been uploaded
==== Log checksum 7A2B52936CA62450306535EAC04F7D09E2790703F09D62046E4607FB14C16430 ====
 
Содержание индексной карты (.CUE)
REM GENRE Jazz
REM DATE 1994
REM DISCID 250C1C03
REM COMMENT "ExactAudioCopy v1.0b3"
FILE "01 - 1972.4.11 Alto 1.wav" WAVE
TRACK 01 AUDIO
INDEX 01 00:00:00
TRACK 02 AUDIO
INDEX 00 14:31:27
FILE "02 - 1972.4.11 Alto 2.wav" WAVE
INDEX 01 00:00:00
TRACK 03 AUDIO
INDEX 00 16:35:25
FILE "03 - 1972.4.11 Alto 3.wav" WAVE
INDEX 01 00:00:00
 
Лог проверки качества
AUDIOCHECKER v2.0 beta (build 457) - by Dester - opdester@freemail.hu
~~~~~~~~~~~~~~~~~~~~~~~~~~~~~~~~~~
-=== DO NOT EDIT THIS FILE! ===-
Path: ...\Kaoru Abe - Solo 1972.4.11 Hikari Kagayaku Nintai (1994) [FLAC] {PSFD-46}
1 -=- 01 - 1972.4.11 Alto 1.flac -=- CDDA (100%)
2 -=- 02 - 1972.4.11 Alto 2.flac -=- CDDA (99%)
3 -=- 03 - 1972.4.11 Alto 3.flac -=- CDDA (100%)
Summary 99,67% CDDA
38668132
 
Состав
阿部薫 alto saxophone
Any questions -> support@pro-jazz.com. По всем вопросам пишите -> support@pro-jazz.com
21:15
169
Нет комментариев. Ваш будет первым!