Вы используете незарегистрированную версию компонента "Вкладки"!

Поиск

(Free Jazz, Avant-garde, Funk) Kondo Toshinori & IMA - Konton (Epic/Sony 32-8H-71) - 1986, FLAC (image+.cue), lossless

(Free Jazz, Avant-garde, Funk) Kondo Toshinori & IMA - Konton (Epic/Sony 32-8H-71) - 1986, FLAC (image+.cue), lossless
Треклист:
Kondo Toshinori & IMA / Konton (Epic/Sony 32-8H-71)
Жанр: Free Jazz, Avant-garde, Funk
Страна-производитель диска: Japan
Год издания диска: 1986
Издатель (лейбл): Epic/Sony
Номер по каталогу: 32-8H-71
Страна: Japan
Аудиокодек: FLAC (*.flac)
Тип рипа: image+.cue
Битрейт аудио: lossless
Продолжительность: 35:32
Источник (релизер): Rip с фирменного CD из собственной коллекции.
Наличие сканов в содержимом раздачи: да
Треклист:
1 . Sundown 5:20
2 . Yami 5:38
3 . Y.U. 6:16
4 . Sandswitch 5:42
5 . YoYoYo 4:35
6 . Gan 7:43
 
Лог создания рипа
Exact Audio Copy V0.99 prebeta 5 from 4. May 2009
Отчёт EAC об извлечении, выполненном 5. августа 2010, 21:07
Kondo Toshinori & IMA / Konton
Дисковод: MATSHITABD-MLT UJ-210S Adapter: 0 ID: 0
Режим чтения : Достоверность
Использование точного потока : Да
Отключение кэша аудио : Да
Использование указателей C2 : Нет
Коррекция смещения при чтении : 102
Способность читать области Lead-in и Lead-out : Нет
Заполнение пропущенных сэмплов тишиной : Да
Удаление блоков с тишиной в начале и конце : Нет
При вычислениях CRC использовались нулевые сэмплы : Да
Интерфейс : Встроенный Win32-интерфейс для Win NT/2000
Выходной формат : Внутренние WAV-операции
Формат сэмплов : 44.100 Гц; 16 бит; стерео
TOC извлечённого CD
Трек | Старт | Длительность | Начальный сектор | Конечный сектор
---------------------------------------------------------------------
1 | 0:00.00 | 5:24.07 | 0 | 24306
2 | 5:24.07 | 5:41.68 | 24307 | 49949
3 | 11:06.00 | 6:21.00 | 49950 | 78524
4 | 17:27.00 | 5:45.00 | 78525 | 104399
5 | 23:12.00 | 4:36.25 | 104400 | 125124
6 | 27:48.25 | 7:44.22 | 125125 | 159946
Характеристики диапазона извлечения и сообщения об ошибках
Выбранный диапазон
Имя файла J:\temp\Kondo Toshinori & IMA - Konton.wav
Пиковый уровень 100.0 %
Качество диапазона 100.0 %
CRC теста C4BFDBD2
CRC копии C4BFDBD2
Копирование... OK
Ошибок не произошло
AccurateRip: сводка
Трек 1 точное извлечение (доверие 1) [9BDF5449]
Трек 2 точное извлечение (доверие 1) [375A0F78]
Трек 3 точное извлечение (доверие 1) [11F1C82D]
Трек 4 точное извлечение (доверие 1) [1FB9815D]
Трек 5 точное извлечение (доверие 1) [8561AB44]
Трек 6 точное извлечение (доверие 1) [9FADFCC6]
Все треки извлечены точно
Конец отчёта
 
Об исполнителе (группе)
Kondo Toshinori & IMA :
Toshinori Kondo - trumpet
Reck - electric guitar,electric bass
Taizo Sakai - electric guitar
Haruo Togashi - keyboards
Hideo Yamaki - drums
+
Bill Laswell - electric bass
Nicky Skopelitis - fairlight programming
Any questions -> support@pro-jazz.com. По всем вопросам пишите -> support@pro-jazz.com
21:13
196
Нет комментариев. Ваш будет первым!