Вы используете незарегистрированную версию компонента "Вкладки"!

Поиск

(Free Jazz / Avant-Garde) Charles Gayle Trio - Spirits Before - 1988 [1995], FLAC (tracks+.cue), lossless

(Free Jazz / Avant-Garde) Charles Gayle Trio - Spirits Before - 1988 [1995], FLAC (tracks+.cue), lossless
Треклист:
Charles Gayle Trio - Spirits Before
Жанр: Free Jazz / Avant-Garde
Год выпуска : 1988
Год издания : 1995
Лейбл: SILKHEART Records
Аудио кодек: FLAC
Тип рипа: tracks+.cue
Битрейт аудио: lossless
Продолжительность: 01:07:12
Рип: hanswurst - What CD


01. Eternal Now (7:35)
02. Spirits Before (17:49)
03. Heart's Nectar (9:53)
04. Earth's Families (7:57)
05. Give (6:50)
06. Black Oil (8:05)
07. Sometimes (9:04)

 
EAC
Exact Audio Copy V0.99 prebeta 5 from 4. May 2009
EAC extraction logfile from 27. December 2009, 17:28
Charles Gayle Trio / Spirits Before
Used drive : PLEXTOR CD-R PREMIUM2 Adapter: 3 ID: 0
Read mode : Secure
Utilize accurate stream : Yes
Defeat audio cache : Yes
Make use of C2 pointers : No
Read offset correction : 30
Overread into Lead-In and Lead-Out : Yes
Fill up missing offset samples with silence : Yes
Delete leading and trailing silent blocks : No
Null samples used in CRC calculations : Yes
Used interface : Native Win32 interface for Win NT & 2000
Gap handling : Appended to previous track
Used output format : User Defined Encoder
Selected bitrate : 128 kBit/s
Quality : High
Add ID3 tag : No
Command line compressor : D:\Programme\EAC099\Flac\flac.exe
Additional command line options : -5 -V -T "ARTIST=%a" -T "TITLE=%t" -T "ALBUM=%g" -T "DATE=%y" -T "TRACKNUMBER=%n" -T "TOTALTRACKS=%x" -T "GENRE=%m" -T "ALBUM ARTIST=%v" -T "ALBUMARTIST=%v" -T "COMMENT=EAC V0.99 prebeta 5, Secure Mode, Test & Copy, Accurat
TOC of the extracted CD
Track | Start | Length | Start sector | End sector
---------------------------------------------------------
1 | 0:00.00 | 7:34.60 | 0 | 34109
2 | 7:34.60 | 17:49.07 | 34110 | 114291
3 | 25:23.67 | 9:53.33 | 114292 | 158799
4 | 35:17.25 | 7:57.32 | 158800 | 194606
5 | 43:14.57 | 6:49.40 | 194607 | 225321
6 | 50:04.22 | 8:04.43 | 225322 | 261664
7 | 58:08.65 | 9:03.57 | 261665 | 302446
Track 1
Filename E:\Share\Jazz\F-J\Charles Gayle Trio - Spirits Before (1988) [FLAC] {SILKHEART SHCD 117}\01 - Eternal Now.wav
Pre-gap length 0:00:02.00
Peak level 91.6 %
Track quality 100.0 %
Test CRC 1F76FF2D
Copy CRC 1F76FF2D
Accurately ripped (confidence 1) [CF942DE0]
Copy OK
Track 2
Filename E:\Share\Jazz\F-J\Charles Gayle Trio - Spirits Before (1988) [FLAC] {SILKHEART SHCD 117}\02 - Spirits Before.wav
Peak level 97.5 %
Track quality 100.0 %
Test CRC 505C805D
Copy CRC 505C805D
Accurately ripped (confidence 1) [C0AEA1B0]
Copy OK
Track 3
Filename E:\Share\Jazz\F-J\Charles Gayle Trio - Spirits Before (1988) [FLAC] {SILKHEART SHCD 117}\03 - Heart's Nectar.wav
Peak level 91.8 %
Track quality 100.0 %
Test CRC D9ADE5A9
Copy CRC D9ADE5A9
Accurately ripped (confidence 1) [B516FB08]
Copy OK
Track 4
Filename E:\Share\Jazz\F-J\Charles Gayle Trio - Spirits Before (1988) [FLAC] {SILKHEART SHCD 117}\04 - Earth's Families.wav
Peak level 95.7 %
Track quality 100.0 %
Test CRC AF4D59DA
Copy CRC AF4D59DA
Accurately ripped (confidence 1) [9B685924]
Copy OK
Track 5
Filename E:\Share\Jazz\F-J\Charles Gayle Trio - Spirits Before (1988) [FLAC] {SILKHEART SHCD 117}\05 - Give.wav
Peak level 98.8 %
Track quality 100.0 %
Test CRC 765937D7
Copy CRC 765937D7
Accurately ripped (confidence 1) [355B5A53]
Copy OK
Track 6
Filename E:\Share\Jazz\F-J\Charles Gayle Trio - Spirits Before (1988) [FLAC] {SILKHEART SHCD 117}\06 - Black Oil.wav
Peak level 97.6 %
Track quality 100.0 %
Test CRC 928A1A90
Copy CRC 928A1A90
Accurately ripped (confidence 1) [0F449F88]
Copy OK
Track 7
Filename E:\Share\Jazz\F-J\Charles Gayle Trio - Spirits Before (1988) [FLAC] {SILKHEART SHCD 117}\07 - Sometimes.wav
Peak level 96.6 %
Track quality 100.0 %
Test CRC 69C78253
Copy CRC 69C78253
Accurately ripped (confidence 1) [CFDDCED4]
Copy OK
All tracks accurately ripped
No errors occurred
End of status report
 
CUE
REM GENRE "Free Jazz"
REM DATE 1988
REM DISCID 5A0FC007
REM COMMENT "ExactAudioCopy v0.99pb5"
PERFORMER "Charles Gayle Trio"
TITLE "Spirits Before"
FILE "01 - Eternal Now.wav" WAVE
TRACK 01 AUDIO
TITLE "Eternal Now"
PERFORMER "Charles Gayle Trio"
INDEX 01 00:00:00
FILE "02 - Spirits Before.wav" WAVE
TRACK 02 AUDIO
TITLE "Spirits Before"
PERFORMER "Charles Gayle Trio"
INDEX 01 00:00:00
FILE "03 - Heart's Nectar.wav" WAVE
TRACK 03 AUDIO
TITLE "Heart's Nectar"
PERFORMER "Charles Gayle Trio"
INDEX 01 00:00:00
FILE "04 - Earth's Families.wav" WAVE
TRACK 04 AUDIO
TITLE "Earth's Families"
PERFORMER "Charles Gayle Trio"
INDEX 01 00:00:00
FILE "05 - Give.wav" WAVE
TRACK 05 AUDIO
TITLE "Give"
PERFORMER "Charles Gayle Trio"
INDEX 01 00:00:00
FILE "06 - Black Oil.wav" WAVE
TRACK 06 AUDIO
TITLE "Black Oil"
PERFORMER "Charles Gayle Trio"
INDEX 01 00:00:00
FILE "07 - Sometimes.wav" WAVE
TRACK 07 AUDIO
TITLE "Sometimes"
PERFORMER "Charles Gayle Trio"
INDEX 01 00:00:00
 
Audiochecker
Started at: вторник, 12. 01. 2010. - 10:46.24
7 files found
1 -===- C:\Downloads\Music\Джаз\Charles Gayle Trio - Spirits Before - 1988\01 - Eternal Now.flac
Extracted successfully
Conclusion: This track looks like CDDA with probability 100%
Tempfile successfully deleted.
2 -===- C:\Downloads\Music\Джаз\Charles Gayle Trio - Spirits Before - 1988\02 - Spirits Before.flac
Extracted successfully
Conclusion: This track looks like CDDA with probability 100%
Tempfile successfully deleted.
3 -===- C:\Downloads\Music\Джаз\Charles Gayle Trio - Spirits Before - 1988\03 - Heart's Nectar.flac
Extracted successfully
Conclusion: This track looks like CDDA with probability 100%
Tempfile successfully deleted.
4 -===- C:\Downloads\Music\Джаз\Charles Gayle Trio - Spirits Before - 1988\04 - Earth's Families.flac
Extracted successfully
Conclusion: This track looks like CDDA with probability 100%
Tempfile successfully deleted.
5 -===- C:\Downloads\Music\Джаз\Charles Gayle Trio - Spirits Before - 1988\05 - Give.flac
Extracted successfully
Conclusion: This track looks like CDDA with probability 100%
Tempfile successfully deleted.
6 -===- C:\Downloads\Music\Джаз\Charles Gayle Trio - Spirits Before - 1988\06 - Black Oil.flac
Extracted successfully
Conclusion: This track looks like CDDA with probability 99%
Tempfile successfully deleted.
7 -===- C:\Downloads\Music\Джаз\Charles Gayle Trio - Spirits Before - 1988\07 - Sometimes.flac
Extracted successfully
Conclusion: This track looks like CDDA with probability 100%
Tempfile successfully deleted.
Finished at: вторник, 12. 01. 2010. - 11:00.48 (operation time: 0:14.24)

Charles Gayle - tenor saxophone
Sirone - double bass
Dave Pleasant - drums
Recorded April 13 & 14, 1988
A & R Recording, New York City, NY
Released 1995
Any questions -> support@pro-jazz.com. По всем вопросам пишите -> support@pro-jazz.com
18:16
94
Нет комментариев. Ваш будет первым!