Вы используете незарегистрированную версию компонента "Вкладки"!

Поиск

(Free Improvisation / Avant-Garde) Fred Lonberg-Holm Trio - Terminal Valentine - 2007, FLAC (tracks+.cue), lossless

(Free Improvisation / Avant-Garde) Fred Lonberg-Holm Trio - Terminal Valentine - 2007, FLAC (tracks+.cue), lossless
Треклист:
Fred Lonberg-Holm Trio - Terminal Valentine
Жанр: Free Improvisation / Avant-Garde
Год выпуска : 2007
Лейбл: Atavistic Records
Аудио кодек: FLAC
Тип рипа: tracks+.cue
Битрейт аудио: lossless
Продолжительность: 00:59:24
Рип: hanswurst - What CD


01. Three Note Song (6:53)
02. Maybe It's Too Late (8:48)
03. And You Smile (4:56)
04. No One Will Ever Be Forgotten (7:09)
05. Just Don't Listen (To The Birds) (6:54)
06. There Never Was A Reason (6:14)
07. Skift Of The Eye (2:51)
08. There's No Way (6:52)
09. I Know You (4:39)
10. One For The Road (4:08)

 
EAC
Exact Audio Copy V0.99 prebeta 5 from 4. May 2009
EAC extraction logfile from 8. January 2010, 8:58
Fred Lonberg-Holm Trio / Terminal Valentines
Used drive : PLEXTOR CD-R PREMIUM2 Adapter: 3 ID: 0
Read mode : Secure
Utilize accurate stream : Yes
Defeat audio cache : Yes
Make use of C2 pointers : No
Read offset correction : 30
Overread into Lead-In and Lead-Out : Yes
Fill up missing offset samples with silence : Yes
Delete leading and trailing silent blocks : No
Null samples used in CRC calculations : Yes
Used interface : Native Win32 interface for Win NT & 2000
Gap handling : Appended to previous track
Used output format : User Defined Encoder
Selected bitrate : 128 kBit/s
Quality : High
Add ID3 tag : No
Command line compressor : D:\Programme\EAC099\Flac\flac.exe
Additional command line options : -5 -V -T "ARTIST=%a" -T "TITLE=%t" -T "ALBUM=%g" -T "DATE=%y" -T "TRACKNUMBER=%n" -T "TOTALTRACKS=%x" -T "GENRE=%m" -T "ALBUM ARTIST=%v" -T "ALBUMARTIST=%v" -T "COMMENT=EAC V0.99 prebeta 5, Secure Mode, Test & Copy, Accurat
TOC of the extracted CD
Track | Start | Length | Start sector | End sector
---------------------------------------------------------
1 | 0:00.00 | 6:52.66 | 0 | 30965
2 | 6:52.66 | 8:48.17 | 30966 | 70582
3 | 15:41.08 | 4:55.56 | 70583 | 92763
4 | 20:36.64 | 7:08.53 | 92764 | 124916
5 | 27:45.42 | 6:54.10 | 124917 | 155976
6 | 34:39.52 | 6:13.43 | 155977 | 183994
7 | 40:53.20 | 2:51.24 | 183995 | 196843
8 | 43:44.44 | 6:52.27 | 196844 | 227770
9 | 50:36.71 | 4:38.70 | 227771 | 248690
10 | 55:15.66 | 4:08.21 | 248691 | 267311
Track 1
Filename E:\Share\Jazz\K-O\Fred Lonberg-Holm Trio - Terminal Valentines (2007) [FLAC] {ALP180CD}\01 - Three Note Song.wav
Pre-gap length 0:00:02.00
Peak level 98.8 %
Track quality 100.0 %
Test CRC 65AE5359
Copy CRC 65AE5359
Accurately ripped (confidence 1) [09B57D89]
Copy OK
Track 2
Filename E:\Share\Jazz\K-O\Fred Lonberg-Holm Trio - Terminal Valentines (2007) [FLAC] {ALP180CD}\02 - Maybe It's Too Late.wav
Peak level 98.8 %
Track quality 100.0 %
Test CRC 04F47220
Copy CRC 04F47220
Accurately ripped (confidence 1) [E6F67FB6]
Copy OK
Track 3
Filename E:\Share\Jazz\K-O\Fred Lonberg-Holm Trio - Terminal Valentines (2007) [FLAC] {ALP180CD}\03 - And You Smile.wav
Peak level 98.8 %
Track quality 100.0 %
Test CRC 528830B3
Copy CRC 528830B3
Accurately ripped (confidence 1) [336CE5CA]
Copy OK
Track 4
Filename E:\Share\Jazz\K-O\Fred Lonberg-Holm Trio - Terminal Valentines (2007) [FLAC] {ALP180CD}\04 - No One Will Ever Be Forgotten.wav
Pre-gap length 0:00:01.41
Peak level 98.8 %
Track quality 99.9 %
Test CRC 34D89127
Copy CRC 34D89127
Accurately ripped (confidence 1) [20A050CA]
Copy OK
Track 5
Filename E:\Share\Jazz\K-O\Fred Lonberg-Holm Trio - Terminal Valentines (2007) [FLAC] {ALP180CD}\05 - Just Don't Listen (To The Birds).wav
Pre-gap length 0:00:01.00
Peak level 98.8 %
Track quality 100.0 %
Test CRC 5148B889
Copy CRC 5148B889
Accurately ripped (confidence 1) [27AF51D3]
Copy OK
Track 6
Filename E:\Share\Jazz\K-O\Fred Lonberg-Holm Trio - Terminal Valentines (2007) [FLAC] {ALP180CD}\06 - There Never Was A Reason.wav
Pre-gap length 0:00:02.00
Peak level 98.8 %
Track quality 99.9 %
Test CRC 098204E9
Copy CRC 098204E9
Accurately ripped (confidence 1) [8F26164E]
Copy OK
Track 7
Filename E:\Share\Jazz\K-O\Fred Lonberg-Holm Trio - Terminal Valentines (2007) [FLAC] {ALP180CD}\07 - Skift Of The Eye.wav
Pre-gap length 0:00:03.00
Peak level 98.8 %
Track quality 99.9 %
Test CRC D2653EE0
Copy CRC D2653EE0
Accurately ripped (confidence 1) [469950F0]
Copy OK
Track 8
Filename E:\Share\Jazz\K-O\Fred Lonberg-Holm Trio - Terminal Valentines (2007) [FLAC] {ALP180CD}\08 - There's No Way.wav
Pre-gap length 0:00:02.00
Peak level 98.8 %
Track quality 100.0 %
Test CRC 91BF418A
Copy CRC 91BF418A
Accurately ripped (confidence 1) [2C6CA393]
Copy OK
Track 9
Filename E:\Share\Jazz\K-O\Fred Lonberg-Holm Trio - Terminal Valentines (2007) [FLAC] {ALP180CD}\09 - I Know You.wav
Pre-gap length 0:00:00.50
Peak level 98.8 %
Track quality 99.9 %
Test CRC 27F2C397
Copy CRC 27F2C397
Accurately ripped (confidence 1) [BD316F4F]
Copy OK
Track 10
Filename E:\Share\Jazz\K-O\Fred Lonberg-Holm Trio - Terminal Valentines (2007) [FLAC] {ALP180CD}\10 - One For The Road.wav
Pre-gap length 0:00:04.00
Peak level 98.9 %
Track quality 100.0 %
Test CRC A5381AA1
Copy CRC A5381AA1
Accurately ripped (confidence 1) [391604C2]
Copy OK
All tracks accurately ripped
No errors occurred
End of status report
 
CUE
REM GENRE "Avantgarde Jazz"
REM DATE 2007
REM DISCID 840DEC0A
REM COMMENT "ExactAudioCopy v0.99pb5"
PERFORMER "Fred Lonberg-Holm Trio"
TITLE "Terminal Valentines"
FILE "01 - Three Note Song.wav" WAVE
TRACK 01 AUDIO
TITLE "Three Note Song"
PERFORMER "Fred Lonberg-Holm Trio"
INDEX 01 00:00:00
FILE "02 - Maybe It's Too Late.wav" WAVE
TRACK 02 AUDIO
TITLE "Maybe It's Too Late"
PERFORMER "Fred Lonberg-Holm Trio"
INDEX 01 00:00:00
FILE "03 - And You Smile.wav" WAVE
TRACK 03 AUDIO
TITLE "And You Smile"
PERFORMER "Fred Lonberg-Holm Trio"
INDEX 01 00:00:00
TRACK 04 AUDIO
TITLE "No One Will Ever Be Forgotten"
PERFORMER "Fred Lonberg-Holm Trio"
INDEX 00 04:54:25
FILE "04 - No One Will Ever Be Forgotten.wav" WAVE
INDEX 01 00:00:00
TRACK 05 AUDIO
TITLE "Just Don't Listen (To The Birds)"
PERFORMER "Fred Lonberg-Holm Trio"
INDEX 00 07:07:53
FILE "05 - Just Don't Listen (To The Birds).wav" WAVE
INDEX 01 00:00:00
TRACK 06 AUDIO
TITLE "There Never Was A Reason"
PERFORMER "Fred Lonberg-Holm Trio"
INDEX 00 06:52:10
FILE "06 - There Never Was A Reason.wav" WAVE
INDEX 01 00:00:00
TRACK 07 AUDIO
TITLE "Skift Of The Eye"
PERFORMER "Fred Lonberg-Holm Trio"
INDEX 00 06:10:43
FILE "07 - Skift Of The Eye.wav" WAVE
INDEX 01 00:00:00
TRACK 08 AUDIO
TITLE "There's No Way"
PERFORMER "Fred Lonberg-Holm Trio"
INDEX 00 02:49:24
FILE "08 - There's No Way.wav" WAVE
INDEX 01 00:00:00
TRACK 09 AUDIO
TITLE "I Know You"
PERFORMER "Fred Lonberg-Holm Trio"
INDEX 00 06:51:64
FILE "09 - I Know You.wav" WAVE
INDEX 01 00:00:00
TRACK 10 AUDIO
TITLE "One For The Road"
PERFORMER "Fred Lonberg-Holm Trio"
INDEX 00 04:34:70
FILE "10 - One For The Road.wav" WAVE
INDEX 01 00:00:00
 
Audiochecker
Started at: вторник, 12. 01. 2010. - 11:11.39
10 files found
01 -===- C:\Downloads\Music\Джаз\Fred Lonberg-Holm Trio - Terminal Valentines - 2007\01 - Three Note Song.flac
Extracted successfully
Conclusion: This track looks like CDDA with probability 100%
Tempfile successfully deleted.
02 -===- C:\Downloads\Music\Джаз\Fred Lonberg-Holm Trio - Terminal Valentines - 2007\02 - Maybe It's Too Late.flac
Extracted successfully
Conclusion: This track looks like CDDA with probability 100%
Tempfile successfully deleted.
03 -===- C:\Downloads\Music\Джаз\Fred Lonberg-Holm Trio - Terminal Valentines - 2007\03 - And You Smile.flac
Extracted successfully
Conclusion: This track looks like CDDA with probability 100%
Tempfile successfully deleted.
04 -===- C:\Downloads\Music\Джаз\Fred Lonberg-Holm Trio - Terminal Valentines - 2007\04 - No One Will Ever Be Forgotten.flac
Extracted successfully
Conclusion: This track looks like CDDA with probability 100%
Tempfile successfully deleted.
05 -===- C:\Downloads\Music\Джаз\Fred Lonberg-Holm Trio - Terminal Valentines - 2007\05 - Just Don't Listen (To The Birds).flac
Extracted successfully
Conclusion: This track looks like CDDA with probability 100%
Tempfile successfully deleted.
06 -===- C:\Downloads\Music\Джаз\Fred Lonberg-Holm Trio - Terminal Valentines - 2007\06 - There Never Was A Reason.flac
Extracted successfully
Conclusion: This track looks like CDDA with probability 100%
Tempfile successfully deleted.
07 -===- C:\Downloads\Music\Джаз\Fred Lonberg-Holm Trio - Terminal Valentines - 2007\07 - Skift Of The Eye.flac
Extracted successfully
Conclusion: This track looks like CDDA with probability 100%
Tempfile successfully deleted.
08 -===- C:\Downloads\Music\Джаз\Fred Lonberg-Holm Trio - Terminal Valentines - 2007\08 - There's No Way.flac
Extracted successfully
Conclusion: This track looks like CDDA with probability 100%
Tempfile successfully deleted.
09 -===- C:\Downloads\Music\Джаз\Fred Lonberg-Holm Trio - Terminal Valentines - 2007\09 - I Know You.flac
Extracted successfully
Conclusion: This track looks like CDDA with probability 100%
Tempfile successfully deleted.
10 -===- C:\Downloads\Music\Джаз\Fred Lonberg-Holm Trio - Terminal Valentines - 2007\10 - One For The Road.flac
Extracted successfully
Conclusion: This track looks like CDDA with probability 100%
Tempfile successfully deleted.
Finished at: вторник, 12. 01. 2010. - 11:23.25 (operation time: 0:11.46)

Fred Lonberg-Holm - cello
Jason Roebke - double bass
Frak Rosaly - drums
Recorded July 24, 2006
Strobe Recordings, Chicago, IL
Released 2007
По всем вопросам пишите личное сообщение пользователю M0p94ok.
18:17
157
Нет комментариев. Ваш будет первым!