Поиск

(free jazz, avant-garde) [cd] Matt Bauder and Day in Pictures - Nightshades (2014, CF 289), FLAC (tracks+.cue), lossless

(free jazz, avant-garde) [cd] Matt Bauder and Day in Pictures - Nightshades (2014, CF 289), FLAC (tracks+.cue), lossless
(free jazz, avant-garde, clean feed) [cd] Matt Bauder and Day in Pictures - Nightshades (2014, CF 289), FLAC (tracks+.cue), lossless


Matt Bauder and Day in Pictures - Nightshades (2014, CF 289)

Жанр: free jazz, avant-garde
Год выпуска: 2014
Издатель (лейбл): Clean Feed / CF289
Формат: FLAC (tracks+.cue)
Битрейт аудио: lossless
Продолжительность 56`08
Источник: what.cd, 6060842
Matt Bauder - Saxophones, Clarinet
Jason Ajemian - Bass
Kris Davis - Piano
Nate Wooley - Trumpet
Tomas Fujiwara - Drums

tracks

01. Octavia Minor 09:00
02. Weekly Resolution 09:44
03. Starr Wykoff 09:51
04. Rule Of Thirds 09:31
05. August And Counting 07:26
06. Nightshades 10:33


 
.log
X Lossless Decoder version 20140504 (147.0)
XLD extraction logfile from 2014-09-09 05:14:07 +0400
Matt Bauder and Day in Pictures / Nightshades
Used drive : ASUS SDRW-08D2S-U (revision A611)
Media type : Pressed CD
Ripper mode : XLD Secure Ripper
Disable audio cache : OK for the drive with a cache less than 1375KiB
Make use of C2 pointers : NO
Read offset correction : 6
Max retry count : 100
Gap status : Analyzed, Appended (except HTOA)
TOC of the extracted CD
Track | Start | Length | Start sector | End sector
---------------------------------------------------------
1 | 00:00:00 | 09:00:37 | 0 | 40536
2 | 09:00:37 | 09:44:70 | 40537 | 84406
3 | 18:45:32 | 09:51:53 | 84407 | 128784
4 | 28:37:10 | 09:31:21 | 128785 | 171630
5 | 38:08:31 | 07:25:71 | 171631 | 205076
6 | 45:34:27 | 10:33:34 | 205077 | 252585
AccurateRip Summary
Disc not found in AccurateRip DB.
All Tracks
Album gain : -4.85 dB
Peak : 1.000000
Statistics
Read error : 0
Jitter error (maybe fixed) : 0
Retry sector count : 0
Damaged sector count : 0
Track 01
Filename : /Users/Shared/Grabbed/Matt Bauder and Day in Pictures - 2014 - Nightshades [FLAC]/01 - Octavia Minor.flac
Pre-gap length : 00:02:00
Track gain : -3.38 dB
Peak : 1.000000
CRC32 hash (test run) : DAC47E1A
CRC32 hash : DAC47E1A
CRC32 hash (skip zero) : 20CE7E71
AccurateRip v1 signature : 185F8527
AccurateRip v2 signature : 90966433
->Track not present in AccurateRip database.
Statistics
Read error : 0
Jitter error (maybe fixed) : 0
Retry sector count : 0
Damaged sector count : 0
Track 02
Filename : /Users/Shared/Grabbed/Matt Bauder and Day in Pictures - 2014 - Nightshades [FLAC]/02 - Weekly Resolution.flac
Pre-gap length : 00:01:74
Track gain : -5.04 dB
Peak : 1.000000
CRC32 hash (test run) : 206764A6
CRC32 hash : 206764A6
CRC32 hash (skip zero) : 8DCF9F06
AccurateRip v1 signature : 9DF22B81
AccurateRip v2 signature : AAEBE9C2
->Track not present in AccurateRip database.
Statistics
Read error : 0
Jitter error (maybe fixed) : 0
Retry sector count : 0
Damaged sector count : 0
Track 03
Filename : /Users/Shared/Grabbed/Matt Bauder and Day in Pictures - 2014 - Nightshades [FLAC]/03 - Star Wykoff.flac
Pre-gap length : 00:01:74
Track gain : -1.06 dB
Peak : 0.996368
CRC32 hash (test run) : 539EFF9B
CRC32 hash : 539EFF9B
CRC32 hash (skip zero) : AC452F91
AccurateRip v1 signature : 4101D7ED
AccurateRip v2 signature : 87141E61
->Track not present in AccurateRip database.
Statistics
Read error : 0
Jitter error (maybe fixed) : 0
Retry sector count : 0
Damaged sector count : 0
Track 04
Filename : /Users/Shared/Grabbed/Matt Bauder and Day in Pictures - 2014 - Nightshades [FLAC]/04 - Rule Of Thirds.flac
Pre-gap length : 00:01:74
Track gain : -4.29 dB
Peak : 0.999146
CRC32 hash (test run) : 2F2EB5D8
CRC32 hash : 2F2EB5D8
CRC32 hash (skip zero) : A0C3EB61
AccurateRip v1 signature : 5FFE087E
AccurateRip v2 signature : C32A5564
->Track not present in AccurateRip database.
Statistics
Read error : 0
Jitter error (maybe fixed) : 0
Retry sector count : 0
Damaged sector count : 0
Track 05
Filename : /Users/Shared/Grabbed/Matt Bauder and Day in Pictures - 2014 - Nightshades [FLAC]/05 - August And Counting.flac
Pre-gap length : 00:01:73
Track gain : -6.22 dB
Peak : 1.000000
CRC32 hash (test run) : 430B5BE8
CRC32 hash : 430B5BE8
CRC32 hash (skip zero) : 2C561215
AccurateRip v1 signature : 24D6404F
AccurateRip v2 signature : FAA1ACD8
->Track not present in AccurateRip database.
Statistics
Read error : 0
Jitter error (maybe fixed) : 0
Retry sector count : 0
Damaged sector count : 0
Track 06
Filename : /Users/Shared/Grabbed/Matt Bauder and Day in Pictures - 2014 - Nightshades [FLAC]/06 - Nighshades.flac
Pre-gap length : 00:01:74
Track gain : -4.72 dB
Peak : 1.000000
CRC32 hash (test run) : E15E8E47
CRC32 hash : E15E8E47
CRC32 hash (skip zero) : C449B0EA
AccurateRip v1 signature : 68F1AD03
AccurateRip v2 signature : 6BD98A70
->Track not present in AccurateRip database.
Statistics
Read error : 0
Jitter error (maybe fixed) : 0
Retry sector count : 0
Damaged sector count : 0
No errors occurred
End of status report
-----BEGIN XLD SIGNATURE-----
no8Jo2r_wcfgdYoTOYXEHkeukyeusizIEcGxiFmvfruSIIIKQ6iEDLAJbkWtJkhZvchiKj7X41uCa18kZkAx_wSy.tp4fj36pTK1gbO
-----END XLD SIGNATURE-----
 
.cue
TITLE "Nightshades"
PERFORMER "Matt Bauder and Day in Pictures"
CATALOG 5609063002898
REM GENRE "Free Jazz"
REM DATE "2014"
REM DISCNUMBER 1
REM TOTALDISCS 1
REM DISCID 490D2706
REM REPLAYGAIN_ALBUM_GAIN -4.85 dB
REM REPLAYGAIN_ALBUM_PEAK 1.000000
FILE "01 - Octavia Minor.flac" WAVE
TRACK 01 AUDIO
TITLE "Octavia Minor"
PERFORMER "Matt Bauder and Day in Pictures"
ISRC PTNF11309111
REM REPLAYGAIN_TRACK_GAIN -3.38 dB
REM REPLAYGAIN_TRACK_PEAK 1.000000
INDEX 01 00:00:00
TRACK 02 AUDIO
TITLE "Weekly Resolution"
PERFORMER "Matt Bauder and Day in Pictures"
ISRC PTNF11309112
REM REPLAYGAIN_TRACK_GAIN -5.04 dB
REM REPLAYGAIN_TRACK_PEAK 1.000000
INDEX 00 08:58:38
FILE "02 - Weekly Resolution.flac" WAVE
INDEX 01 00:00:00
TRACK 03 AUDIO
TITLE "Star Wykoff"
PERFORMER "Matt Bauder and Day in Pictures"
ISRC PTNF11309113
REM REPLAYGAIN_TRACK_GAIN -1.06 dB
REM REPLAYGAIN_TRACK_PEAK 0.996368
INDEX 00 09:42:71
FILE "03 - Star Wykoff.flac" WAVE
INDEX 01 00:00:00
TRACK 04 AUDIO
TITLE "Rule Of Thirds"
PERFORMER "Matt Bauder and Day in Pictures"
ISRC PTNF11309114
REM REPLAYGAIN_TRACK_GAIN -4.29 dB
REM REPLAYGAIN_TRACK_PEAK 0.999146
INDEX 00 09:49:54
FILE "04 - Rule Of Thirds.flac" WAVE
INDEX 01 00:00:00
TRACK 05 AUDIO
TITLE "August And Counting"
PERFORMER "Matt Bauder and Day in Pictures"
ISRC PTNF11309115
REM REPLAYGAIN_TRACK_GAIN -6.22 dB
REM REPLAYGAIN_TRACK_PEAK 1.000000
INDEX 00 09:29:23
FILE "05 - August And Counting.flac" WAVE
INDEX 01 00:00:00
TRACK 06 AUDIO
TITLE "Nighshades"
PERFORMER "Matt Bauder and Day in Pictures"
ISRC PTNF11309116
REM REPLAYGAIN_TRACK_GAIN -4.72 dB
REM REPLAYGAIN_TRACK_PEAK 1.000000
INDEX 00 07:23:72
FILE "06 - Nighshades.flac" WAVE
INDEX 01 00:00:00

другие релизы
05:01
261
Нет комментариев. Ваш будет первым!