Вы используете незарегистрированную версию компонента "Вкладки"!

Поиск

(free jazz, avant-garde) [cd] Satoko Fujii - Gen Himmel 2013, FLAC (tracks+.cue), lossless

(free jazz, avant-garde) [cd] Satoko Fujii - Gen Himmel 2013, FLAC (tracks+.cue), lossless
Треклист:
(free jazz, avant-garde) [cd] Satoko Fujii - Gen Himmel 2013, FLAC (tracks+.cue), lossless


Satoko Fujii - Gen Himmel 2013

Жанр: free jazz, avant-garde
Год выпуска: 2013
Издатель (лейбл):Libra Records / 201-033
Формат: FLAC (tracks+.cue)
Битрейт аудио: lossless
Продолжительность 45`58
Источник: what.cd, 6060842

tracks

1 Gen Himmel 2:32
2 In The Dusk 4:29
3 Hesitation 2:24
4 Take Right 8:04
5 Ram 3:00
6 A.S. 4:00
7 Dawn Broun 2:54
8 Summer Solstice 4:19
9 I Know You Don't Know 4:48
10 Ittari Kitari 1:57
11 Saka 2:31
12 Der Traum 4:32


 
.log
X Lossless Decoder version 20140504 (147.0)
XLD extraction logfile from 2014-09-15 10:40:21 +0400
Satoko Fujii / Gen Himmel
Used drive : ASUS SDRW-08D2S-U (revision A611)
Media type : Pressed CD
Ripper mode : XLD Secure Ripper
Disable audio cache : OK for the drive with a cache less than 1375KiB
Make use of C2 pointers : NO
Read offset correction : 6
Max retry count : 100
Gap status : Analyzed, Appended (except HTOA)
TOC of the extracted CD
Track | Start | Length | Start sector | End sector
---------------------------------------------------------
1 | 00:00:00 | 02:34:56 | 0 | 11605
2 | 02:34:56 | 04:31:59 | 11606 | 31989
3 | 07:06:40 | 02:26:15 | 31990 | 42954
4 | 09:32:55 | 08:06:12 | 42955 | 79416
5 | 17:38:67 | 03:02:06 | 79417 | 93072
6 | 20:40:73 | 04:02:39 | 93073 | 111261
7 | 24:43:37 | 02:56:23 | 111262 | 124484
8 | 27:39:60 | 04:21:64 | 124485 | 144123
9 | 32:01:49 | 04:50:14 | 144124 | 165887
10 | 36:51:63 | 01:59:45 | 165888 | 174857
11 | 38:51:33 | 02:33:36 | 174858 | 186368
12 | 41:24:69 | 04:32:72 | 186369 | 206840
AccurateRip Summary
Disc not found in AccurateRip DB.
All Tracks
Album gain : -5.74 dB
Peak : 0.988556
Statistics
Read error : 0
Jitter error (maybe fixed) : 0
Retry sector count : 0
Damaged sector count : 0
Track 01
Filename : /Users/Shared/Grabbed/Satoko Fujii - 2013 - Gen Himmel [MP3 320]/01 - Gen Himmel.mp3
/Users/Shared/Grabbed/Satoko Fujii - 2013 - Gen Himmel [MP3 V0]/01 - Gen Himmel.mp3
/Users/Shared/Grabbed/Satoko Fujii - 2013 - Gen Himmel [FLAC]/01 - Gen Himmel.flac
Pre-gap length : 00:02:00
Track gain : -0.93 dB
Peak : 0.973938
CRC32 hash (test run) : 2EE3AB2B
CRC32 hash : 2EE3AB2B
CRC32 hash (skip zero) : 83B972DB
AccurateRip v1 signature : ECAEB71F
AccurateRip v2 signature : 1E85281C
->Track not present in AccurateRip database.
Statistics
Read error : 0
Jitter error (maybe fixed) : 0
Retry sector count : 0
Damaged sector count : 0
Track 02
Filename : /Users/Shared/Grabbed/Satoko Fujii - 2013 - Gen Himmel [MP3 320]/02 - In The Dusk.mp3
/Users/Shared/Grabbed/Satoko Fujii - 2013 - Gen Himmel [MP3 V0]/02 - In The Dusk.mp3
/Users/Shared/Grabbed/Satoko Fujii - 2013 - Gen Himmel [FLAC]/02 - In The Dusk.flac
Pre-gap length : 00:02:00
Track gain : -6.63 dB
Peak : 0.988556
CRC32 hash (test run) : 3F0E06F3
CRC32 hash : 3F0E06F3
CRC32 hash (skip zero) : 966159EB
AccurateRip v1 signature : 450EB5F4
AccurateRip v2 signature : C5D6C5BE
->Track not present in AccurateRip database.
Statistics
Read error : 0
Jitter error (maybe fixed) : 0
Retry sector count : 0
Damaged sector count : 0
Track 03
Filename : /Users/Shared/Grabbed/Satoko Fujii - 2013 - Gen Himmel [MP3 320]/03 - Hesitation.mp3
/Users/Shared/Grabbed/Satoko Fujii - 2013 - Gen Himmel [MP3 V0]/03 - Hesitation.mp3
/Users/Shared/Grabbed/Satoko Fujii - 2013 - Gen Himmel [FLAC]/03 - Hesitation.flac
Pre-gap length : 00:02:00
Track gain : -4.77 dB
Peak : 0.988556
CRC32 hash (test run) : 7EF7FBEC
CRC32 hash : 7EF7FBEC
CRC32 hash (skip zero) : 12CF2718
AccurateRip v1 signature : E3A6BFB9
AccurateRip v2 signature : 87DD7A3E
->Track not present in AccurateRip database.
Statistics
Read error : 0
Jitter error (maybe fixed) : 0
Retry sector count : 0
Damaged sector count : 0
Track 04
Filename : /Users/Shared/Grabbed/Satoko Fujii - 2013 - Gen Himmel [MP3 320]/04 - Take Right.mp3
/Users/Shared/Grabbed/Satoko Fujii - 2013 - Gen Himmel [MP3 V0]/04 - Take Right.mp3
/Users/Shared/Grabbed/Satoko Fujii - 2013 - Gen Himmel [FLAC]/04 - Take Right.flac
Pre-gap length : 00:02:00
Track gain : -5.32 dB
Peak : 0.971558
CRC32 hash (test run) : 614DD904
CRC32 hash : 614DD904
CRC32 hash (skip zero) : C37A4602
AccurateRip v1 signature : 6E723983
AccurateRip v2 signature : 7476F5E8
->Track not present in AccurateRip database.
Statistics
Read error : 0
Jitter error (maybe fixed) : 0
Retry sector count : 0
Damaged sector count : 0
Track 05
Filename : /Users/Shared/Grabbed/Satoko Fujii - 2013 - Gen Himmel [MP3 320]/05 - Ram.mp3
/Users/Shared/Grabbed/Satoko Fujii - 2013 - Gen Himmel [MP3 V0]/05 - Ram.mp3
/Users/Shared/Grabbed/Satoko Fujii - 2013 - Gen Himmel [FLAC]/05 - Ram.flac
Pre-gap length : 00:02:00
Track gain : -1.86 dB
Peak : 0.967072
CRC32 hash (test run) : 12C23555
CRC32 hash : 12C23555
CRC32 hash (skip zero) : 7EED10D5
AccurateRip v1 signature : 103EA185
AccurateRip v2 signature : 915C8979
->Track not present in AccurateRip database.
Statistics
Read error : 0
Jitter error (maybe fixed) : 0
Retry sector count : 0
Damaged sector count : 0
Track 06
Filename : /Users/Shared/Grabbed/Satoko Fujii - 2013 - Gen Himmel [MP3 320]/06 - A.S..mp3
/Users/Shared/Grabbed/Satoko Fujii - 2013 - Gen Himmel [MP3 V0]/06 - A.S..mp3
/Users/Shared/Grabbed/Satoko Fujii - 2013 - Gen Himmel [FLAC]/06 - A.S..flac
Pre-gap length : 00:02:00
Track gain : -5.71 dB
Peak : 0.972839
CRC32 hash (test run) : 0D0FEF03
CRC32 hash : 0D0FEF03
CRC32 hash (skip zero) : BEF9F2C8
AccurateRip v1 signature : EC7A6E40
AccurateRip v2 signature : 30513748
->Track not present in AccurateRip database.
Statistics
Read error : 0
Jitter error (maybe fixed) : 0
Retry sector count : 0
Damaged sector count : 0
Track 07
Filename : /Users/Shared/Grabbed/Satoko Fujii - 2013 - Gen Himmel [MP3 320]/07 - Dawn Broun.mp3
/Users/Shared/Grabbed/Satoko Fujii - 2013 - Gen Himmel [MP3 V0]/07 - Dawn Broun.mp3
/Users/Shared/Grabbed/Satoko Fujii - 2013 - Gen Himmel [FLAC]/07 - Dawn Broun.flac
Pre-gap length : 00:02:00
Track gain : -6.22 dB
Peak : 0.988556
CRC32 hash (test run) : D38A1115
CRC32 hash : D38A1115
CRC32 hash (skip zero) : F459581D
AccurateRip v1 signature : 14CAD92B
AccurateRip v2 signature : C1F96ADE
->Track not present in AccurateRip database.
Statistics
Read error : 0
Jitter error (maybe fixed) : 0
Retry sector count : 0
Damaged sector count : 0
Track 08
Filename : /Users/Shared/Grabbed/Satoko Fujii - 2013 - Gen Himmel [MP3 320]/08 - Summer Solstice.mp3
/Users/Shared/Grabbed/Satoko Fujii - 2013 - Gen Himmel [MP3 V0]/08 - Summer Solstice.mp3
/Users/Shared/Grabbed/Satoko Fujii - 2013 - Gen Himmel [FLAC]/08 - Summer Solstice.flac
Pre-gap length : 00:02:00
Track gain : -6.00 dB
Peak : 0.971954
CRC32 hash (test run) : FCF1E35F
CRC32 hash : FCF1E35F
CRC32 hash (skip zero) : 97898B58
AccurateRip v1 signature : 5E9AE841
AccurateRip v2 signature : 53114451
->Track not present in AccurateRip database.
Statistics
Read error : 0
Jitter error (maybe fixed) : 0
Retry sector count : 0
Damaged sector count : 0
Track 09
Filename : /Users/Shared/Grabbed/Satoko Fujii - 2013 - Gen Himmel [MP3 320]/09 - I Know You Don't Know.mp3
/Users/Shared/Grabbed/Satoko Fujii - 2013 - Gen Himmel [MP3 V0]/09 - I Know You Don't Know.mp3
/Users/Shared/Grabbed/Satoko Fujii - 2013 - Gen Himmel [FLAC]/09 - I Know You Don't Know.flac
Pre-gap length : 00:02:00
Track gain : -6.55 dB
Peak : 0.985779
CRC32 hash (test run) : 6D69ED46
CRC32 hash : 6D69ED46
CRC32 hash (skip zero) : 16340927
AccurateRip v1 signature : 170B4AC2
AccurateRip v2 signature : 6F612A3A
->Track not present in AccurateRip database.
Statistics
Read error : 0
Jitter error (maybe fixed) : 0
Retry sector count : 0
Damaged sector count : 0
Track 10
Filename : /Users/Shared/Grabbed/Satoko Fujii - 2013 - Gen Himmel [MP3 320]/10 - Ittari Kitari.mp3
/Users/Shared/Grabbed/Satoko Fujii - 2013 - Gen Himmel [MP3 V0]/10 - Ittari Kitari.mp3
/Users/Shared/Grabbed/Satoko Fujii - 2013 - Gen Himmel [FLAC]/10 - Ittari Kitari.flac
Pre-gap length : 00:02:00
Track gain : -4.47 dB
Peak : 0.961609
CRC32 hash (test run) : 90A604A5
CRC32 hash : 90A604A5
CRC32 hash (skip zero) : 7B84CCFC
AccurateRip v1 signature : F792BB29
AccurateRip v2 signature : ED357230
->Track not present in AccurateRip database.
Statistics
Read error : 0
Jitter error (maybe fixed) : 0
Retry sector count : 0
Damaged sector count : 0
Track 11
Filename : /Users/Shared/Grabbed/Satoko Fujii - 2013 - Gen Himmel [MP3 320]/11 - Saka.mp3
/Users/Shared/Grabbed/Satoko Fujii - 2013 - Gen Himmel [MP3 V0]/11 - Saka.mp3
/Users/Shared/Grabbed/Satoko Fujii - 2013 - Gen Himmel [FLAC]/11 - Saka.flac
Pre-gap length : 00:02:00
Track gain : -3.07 dB
Peak : 0.964386
CRC32 hash (test run) : 0F77EF85
CRC32 hash : 0F77EF85
CRC32 hash (skip zero) : 4E332364
AccurateRip v1 signature : 13163E18
AccurateRip v2 signature : FD5033DD
->Track not present in AccurateRip database.
Statistics
Read error : 0
Jitter error (maybe fixed) : 0
Retry sector count : 0
Damaged sector count : 0
Track 12
Filename : /Users/Shared/Grabbed/Satoko Fujii - 2013 - Gen Himmel [MP3 320]/12 - Der Traum.mp3
/Users/Shared/Grabbed/Satoko Fujii - 2013 - Gen Himmel [MP3 V0]/12 - Der Traum.mp3
/Users/Shared/Grabbed/Satoko Fujii - 2013 - Gen Himmel [FLAC]/12 - Der Traum.flac
Pre-gap length : 00:02:00
Track gain : -6.20 dB
Peak : 0.967773
CRC32 hash (test run) : 6FE18632
CRC32 hash : 6FE18632
CRC32 hash (skip zero) : 1AF243A7
AccurateRip v1 signature : E05D9862
AccurateRip v2 signature : 395C32B1
->Track not present in AccurateRip database.
Statistics
Read error : 0
Jitter error (maybe fixed) : 0
Retry sector count : 0
Damaged sector count : 0
No errors occurred
End of status report
-----BEGIN XLD SIGNATURE-----
PSkYahfBG3VWg9crXZE1XL9GUgpbDgf79NYopQdUILgdq_HQtdWoD58dF14TRLTcGEj.eDE2sCFExT8iNpxn3pOgrSymcA7w4hhXCjG
-----END XLD SIGNATURE-----
 
.cue
TITLE "Gen Himmel"
PERFORMER "Satoko Fujii"
REM GENRE "Free Jazz"
REM DATE "2013"
REM DISCNUMBER 1
REM TOTALDISCS 1
REM DISCID 920AC50C
REM REPLAYGAIN_ALBUM_GAIN -5.74 dB
REM REPLAYGAIN_ALBUM_PEAK 0.988556
FILE "01 - Gen Himmel.flac" WAVE
TRACK 01 AUDIO
TITLE "Gen Himmel"
PERFORMER "Satoko Fujii"
SONGWRITER "Satoko Fujii"
REM REPLAYGAIN_TRACK_GAIN -0.93 dB
REM REPLAYGAIN_TRACK_PEAK 0.973938
INDEX 01 00:00:00
TRACK 02 AUDIO
TITLE "In The Dusk"
PERFORMER "Satoko Fujii"
SONGWRITER "Satoko Fujii"
REM REPLAYGAIN_TRACK_GAIN -6.63 dB
REM REPLAYGAIN_TRACK_PEAK 0.988556
INDEX 00 02:32:56
FILE "02 - In The Dusk.flac" WAVE
INDEX 01 00:00:00
TRACK 03 AUDIO
TITLE "Hesitation"
PERFORMER "Satoko Fujii"
SONGWRITER "Satoko Fujii"
REM REPLAYGAIN_TRACK_GAIN -4.77 dB
REM REPLAYGAIN_TRACK_PEAK 0.988556
INDEX 00 04:29:59
FILE "03 - Hesitation.flac" WAVE
INDEX 01 00:00:00
TRACK 04 AUDIO
TITLE "Take Right"
PERFORMER "Satoko Fujii"
SONGWRITER "Satoko Fujii"
REM REPLAYGAIN_TRACK_GAIN -5.32 dB
REM REPLAYGAIN_TRACK_PEAK 0.971558
INDEX 00 02:24:15
FILE "04 - Take Right.flac" WAVE
INDEX 01 00:00:00
TRACK 05 AUDIO
TITLE "Ram"
PERFORMER "Satoko Fujii"
SONGWRITER "Satoko Fujii"
REM REPLAYGAIN_TRACK_GAIN -1.86 dB
REM REPLAYGAIN_TRACK_PEAK 0.967072
INDEX 00 08:04:12
FILE "05 - Ram.flac" WAVE
INDEX 01 00:00:00
TRACK 06 AUDIO
TITLE "A.S."
PERFORMER "Satoko Fujii"
SONGWRITER "Satoko Fujii"
REM REPLAYGAIN_TRACK_GAIN -5.71 dB
REM REPLAYGAIN_TRACK_PEAK 0.972839
INDEX 00 03:00:06
FILE "06 - A.S..flac" WAVE
INDEX 01 00:00:00
TRACK 07 AUDIO
TITLE "Dawn Broun"
PERFORMER "Satoko Fujii"
SONGWRITER "Satoko Fujii"
REM REPLAYGAIN_TRACK_GAIN -6.22 dB
REM REPLAYGAIN_TRACK_PEAK 0.988556
INDEX 00 04:00:39
FILE "07 - Dawn Broun.flac" WAVE
INDEX 01 00:00:00
TRACK 08 AUDIO
TITLE "Summer Solstice"
PERFORMER "Satoko Fujii"
SONGWRITER "Satoko Fujii"
REM REPLAYGAIN_TRACK_GAIN -6.00 dB
REM REPLAYGAIN_TRACK_PEAK 0.971954
INDEX 00 02:54:23
FILE "08 - Summer Solstice.flac" WAVE
INDEX 01 00:00:00
TRACK 09 AUDIO
TITLE "I Know You Don't Know"
PERFORMER "Satoko Fujii"
SONGWRITER "Satoko Fujii"
REM REPLAYGAIN_TRACK_GAIN -6.55 dB
REM REPLAYGAIN_TRACK_PEAK 0.985779
INDEX 00 04:19:64
FILE "09 - I Know You Don't Know.flac" WAVE
INDEX 01 00:00:00
TRACK 10 AUDIO
TITLE "Ittari Kitari"
PERFORMER "Satoko Fujii"
SONGWRITER "Satoko Fujii"
REM REPLAYGAIN_TRACK_GAIN -4.47 dB
REM REPLAYGAIN_TRACK_PEAK 0.961609
INDEX 00 04:48:14
FILE "10 - Ittari Kitari.flac" WAVE
INDEX 01 00:00:00
TRACK 11 AUDIO
TITLE "Saka"
PERFORMER "Satoko Fujii"
SONGWRITER "Satoko Fujii"
REM REPLAYGAIN_TRACK_GAIN -3.07 dB
REM REPLAYGAIN_TRACK_PEAK 0.964386
INDEX 00 01:57:45
FILE "11 - Saka.flac" WAVE
INDEX 01 00:00:00
TRACK 12 AUDIO
TITLE "Der Traum"
PERFORMER "Satoko Fujii"
SONGWRITER "Satoko Fujii"
REM REPLAYGAIN_TRACK_GAIN -6.20 dB
REM REPLAYGAIN_TRACK_PEAK 0.967773
INDEX 00 02:31:36
FILE "12 - Der Traum.flac" WAVE
INDEX 01 00:00:00

http://www.discogs.com/Satoko-Fujii-Gen-Himmel/release/4783126
другие релизы
По всем вопросам пишите личное сообщение пользователю M0p94ok.
05:01
162
Нет комментариев. Ваш будет первым!