Вы используете незарегистрированную версию компонента "Вкладки"!

Поиск

(Bop, Experimental) [CD] Andre Hodeir - Jazz & Jazz (1960) [Jazz In Paris 97] - 2002, FLAC (tracks+.cue), lossless

(Bop, Experimental) [CD] Andre Hodeir - Jazz & Jazz (1960) [Jazz In Paris 97] - 2002, FLAC (tracks+.cue), lossless
Треклист:
André Hodeir - Jazz & Jazz [Jazz In Paris 97] Жанр: Bop, Experimental
Носитель: CD
Год издания: 2002
Издатель (лейбл): Gitanes
Номер по каталогу: 018 422-2
Аудиокодек: FLAC (*.flac)
Тип рипа: tracks+.cue
Битрейт аудио: lossless
Продолжительность: 40:35
Источник (релизер): What.cd (verbatim32)
Наличие сканов в содержимом раздачи: сетевые
Треклист:
01. Flautando (3:50)
02. Jazz Cantata I, II, III (4:22)
03. Jazz Cantata IV (2:24)
04. Jazz Cantata V, VI, VII (3:27)
05. Trope à Saint-Trop (3:16)
06. Osymetrios I (3:42)
07. Le palais idéal I, II, III (4:12)
08. Le palais idéal IV (2:30)
09. Le palais idéal V, VI, VII (6:13)
10. Jazz et jazz (3:08)
11. Osymetrios II (3:31)
Personnel:
Christian Bellest (2-4, 7-9), Roger Guérin (2-11) – tp
André Paquinet (2-4), Nat Peck (5-9, 11) – tb
Raymond Guiot (1) – fl; Georges Grenu (2-9, 11) – ts; Pierre Gossez (2-4), Hubert Rostaing (7-9) – as; Armand Migiani (2-4, 7-9) – bars
Martial Solal (1, 5, 6, 10, 11) – p; Jean Barraqué (10) – piano prepared
Pierre Michelot (1-9, 11), Emmanuel Soudieux (10) – b
Christian Garros (2-4, 7-9), Kenny Clarke (1, 5, 6, 11), Richie Frost (10) – d
Jean-Pierre Drouet (2-4, 7-9) – vib, perc
Christiane Legrand (2-4) – vo
André Hodeir – comp, cond
Rec.: Paris, 1960
 
 
Лог создания рипа
Exact Audio Copy V1.0 beta 3 from 29. August 2011
EAC extraction logfile from 8. September 2014, 1:27
André Hodeir / Jazz & Jazz
Used drive : HL-DT-STBD-RE BH16NS40 Adapter: 0 ID: 0
Read mode : Secure
Utilize accurate stream : Yes
Defeat audio cache : Yes
Make use of C2 pointers : No
Read offset correction : 6
Overread into Lead-In and Lead-Out : No
Fill up missing offset samples with silence : Yes
Delete leading and trailing silent blocks : No
Null samples used in CRC calculations : Yes
Used interface : Native Win32 interface for Win NT & 2000
Gap handling : Appended to previous track
Used output format : User Defined Encoder
Selected bitrate : 1024 kBit/s
Quality : High
Add ID3 tag : No
Command line compressor : B:\Programmes\Exact Audio Copy\FLAC\FLAC.EXE
Additional command line options : -8 -V -T "ARTIST=%artist%" -T "TITLE=%title%" -T "ALBUM=%albumtitle%" -T "DATE=%year%" -T "TRACKNUMBER=%tracknr%" -T "GENRE=%genre%" -T "PERFORMER=%albuminterpret%" -T "COMPOSER=%composer%" %haslyrics%--tag-from-file=LYRICS="%lyricsfile%"%haslyrics% -T "ALBUMARTIST=%albumartist%" -T "DISCNUMBER=%cdnumber%" -T "TOTALDISCS=%totalcds%" -T "TOTALTRACKS=%numtracks%" -T "COMMENT=%comment%" %source% -o %dest%
TOC of the extracted CD
Track | Start | Length | Start sector | End sector
---------------------------------------------------------
1 | 0:00.00 | 3:50.33 | 0 | 17282
2 | 3:50.33 | 4:21.60 | 17283 | 36917
3 | 8:12.18 | 2:24.30 | 36918 | 47747
4 | 10:36.48 | 3:26.73 | 47748 | 63270
5 | 14:03.46 | 3:16.16 | 63271 | 77986
6 | 17:19.62 | 3:41.51 | 77987 | 94612
7 | 21:01.38 | 4:11.51 | 94613 | 113488
8 | 25:13.14 | 2:30.29 | 113489 | 124767
9 | 27:43.43 | 6:12.58 | 124768 | 152725
10 | 33:56.26 | 3:07.73 | 152726 | 166823
11 | 37:04.24 | 3:30.46 | 166824 | 182619
Track 1
Filename A:\Music\What.cd\Ripped\01.Flautando.wav
Pre-gap length 0:00:02.00
Peak level 88.5 %
Extraction speed 3.3 X
Track quality 100.0 %
Test CRC C3C91D1D
Copy CRC C3C91D1D
Accurately ripped (confidence 2) [5339F453] (AR v1)
Copy OK
Track 2
Filename A:\Music\What.cd\Ripped\02.Jazz Cantata I, II, III.wav
Pre-gap length 0:00:01.60
Peak level 77.3 %
Extraction speed 2.2 X
Track quality 100.0 %
Test CRC B29D6D28
Copy CRC B29D6D28
Accurately ripped (confidence 2) [D027B55C] (AR v1)
Copy OK
Track 3
Filename A:\Music\What.cd\Ripped\03.Jazz Cantata IV.wav
Peak level 73.6 %
Extraction speed 0.9 X
Track quality 99.9 %
Test CRC 61878F9B
Copy CRC 61878F9B
Accurately ripped (confidence 2) [99E78B1E] (AR v1)
Copy OK
Track 4
Filename A:\Music\What.cd\Ripped\04.Jazz Cantata V, VI, VII.wav
Peak level 74.8 %
Extraction speed 1.3 X
Track quality 100.0 %
Test CRC 2EA39C73
Copy CRC 2EA39C73
Accurately ripped (confidence 2) [F062C8BE] (AR v1)
Copy OK
Track 5
Filename A:\Music\What.cd\Ripped\05.Trope à Saint-Trop.wav
Pre-gap length 0:00:01.60
Peak level 73.5 %
Extraction speed 1.1 X
Track quality 99.9 %
Test CRC 5D2B738D
Copy CRC 5D2B738D
Accurately ripped (confidence 2) [57F55FE2] (AR v1)
Copy OK
Track 6
Filename A:\Music\What.cd\Ripped\06.Osymetrios I.wav
Pre-gap length 0:00:01.60
Peak level 77.5 %
Extraction speed 1.4 X
Track quality 100.0 %
Test CRC E3A8B1FE
Copy CRC E3A8B1FE
Accurately ripped (confidence 2) [916EB5C6] (AR v1)
Copy OK
Track 7
Filename A:\Music\What.cd\Ripped\07.Le palais idéal I, II, III.wav
Pre-gap length 0:00:01.60
Peak level 86.1 %
Extraction speed 1.4 X
Track quality 99.9 %
Test CRC 2C5B4994
Copy CRC 2C5B4994
Accurately ripped (confidence 2) [3691177B] (AR v1)
Copy OK
Track 8
Filename A:\Music\What.cd\Ripped\08.Le palais idéal IV.wav
Peak level 80.8 %
Extraction speed 1.2 X
Track quality 99.9 %
Test CRC 45FEC2A5
Copy CRC 45FEC2A5
Accurately ripped (confidence 2) [330E9031] (AR v1)
Copy OK
Track 9
Filename A:\Music\What.cd\Ripped\09.Le palais idéal V, VI, VII.wav
Peak level 82.3 %
Extraction speed 1.8 X
Track quality 100.0 %
Test CRC 9A88F8DB
Copy CRC 9A88F8DB
Accurately ripped (confidence 2) [77553B18] (AR v1)
Copy OK
Track 10
Filename A:\Music\What.cd\Ripped\10.Jazz et jazz.wav
Pre-gap length 0:00:01.60
Peak level 75.4 %
Extraction speed 1.7 X
Track quality 100.0 %
Test CRC 0C6EC2D2
Copy CRC 0C6EC2D2
Accurately ripped (confidence 2) [22010C38] (AR v1)
Copy OK
Track 11
Filename A:\Music\What.cd\Ripped\11.Osymetrios II.wav
Pre-gap length 0:00:01.60
Peak level 65.6 %
Extraction speed 1.8 X
Track quality 100.0 %
Test CRC 357BB140
Copy CRC 357BB140
Accurately ripped (confidence 2) [33A40C2B] (AR v1)
Copy OK
All tracks accurately ripped
No errors occurred
End of status report
---- CUETools DB Plugin V2.1.3
[CTDB TOCID: oYndNMmnluOra_Nijl48JkoSMg4-] disk not present in database, Submit result: oYndNMmnluOra_Nijl48JkoSMg4- has been uploaded
==== Log checksum 88CA9A7E3AD90567657B3D6813302A40C578B57CEDCAF22ED1DCCE66EF988991 ====
 
Содержание индексной карты (.CUE)
REM GENRE Jazz
REM DATE 1960
REM DISCID 8509820B
REM COMMENT "ExactAudioCopy v1.0b3"
PERFORMER "André Hodeir"
TITLE "Jazz & Jazz"
FILE "01. Flautando.flac" WAVE
TRACK 01 AUDIO
TITLE "Flautando"
PERFORMER "André Hodeir"
ISRC FRZ036000020
FLAGS DCP
INDEX 01 00:00:00
TRACK 02 AUDIO
TITLE "Jazz Cantata I, II, III"
PERFORMER "André Hodeir"
ISRC FRZ026080050
FLAGS DCP
INDEX 00 03:48:63
FILE "02. Jazz Cantata I, II, III.flac" WAVE
INDEX 01 00:00:00
FILE "03. Jazz Cantata IV.flac" WAVE
TRACK 03 AUDIO
TITLE "Jazz Cantata IV"
PERFORMER "André Hodeir"
ISRC FRZ026080050
FLAGS DCP
INDEX 01 00:00:00
FILE "04. Jazz Cantata V, VI, VII.flac" WAVE
TRACK 04 AUDIO
TITLE "Jazz Cantata V, VI, VII"
PERFORMER "André Hodeir"
ISRC FRZ026080070
FLAGS DCP
INDEX 01 00:00:00
TRACK 05 AUDIO
TITLE "Trope à Saint-Trop"
PERFORMER "André Hodeir"
ISRC FRZ036000040
FLAGS DCP
INDEX 00 03:25:28
FILE "05. Trope a Saint-Trop.flac" WAVE
INDEX 01 00:00:00
TRACK 06 AUDIO
TITLE "Osymetrios I"
PERFORMER "André Hodeir"
ISRC FRZ036000010
FLAGS DCP
INDEX 00 03:14:46
FILE "06. Osymetrios I.flac" WAVE
INDEX 01 00:00:00
TRACK 07 AUDIO
TITLE "Le palais idéal I, II, III"
PERFORMER "André Hodeir"
ISRC FRZ026080090
FLAGS DCP
INDEX 00 03:40:06
FILE "07. Le palais ideal I, II, III.flac" WAVE
INDEX 01 00:00:00
FILE "08. Le palais ideal IV.flac" WAVE
TRACK 08 AUDIO
TITLE "Le palais idéal IV"
PERFORMER "André Hodeir"
ISRC FRZ026080100
FLAGS DCP
INDEX 01 00:00:00
FILE "09. Le palais ideal V, VI, VII.flac" WAVE
TRACK 09 AUDIO
TITLE "Le palais idéal V, VI, VII"
PERFORMER "André Hodeir"
ISRC FRZ026080110
FLAGS DCP
INDEX 01 00:00:00
TRACK 10 AUDIO
TITLE "Jazz et jazz"
PERFORMER "André Hodeir"
ISRC FRZ036000060
FLAGS DCP
INDEX 00 06:11:13
FILE "10. Jazz et jazz.flac" WAVE
INDEX 01 00:00:00
TRACK 11 AUDIO
TITLE "Osymetrios II"
PERFORMER "André Hodeir"
ISRC FRZ036000070
FLAGS DCP
INDEX 00 03:06:28
FILE "11. Osymetrios II.flac" WAVE
INDEX 01 00:00:00
По всем вопросам пишите личное сообщение пользователю M0p94ok.
05:02
175
Нет комментариев. Ваш будет первым!