Вы используете незарегистрированную версию компонента "Вкладки"!

Поиск

(free jazz, avant-garde) [cd] Connie Crothers - 4 albums: Concert in Paris (2014), Deep Friendship (2014), Session at 475 Kent (2009), Swish (1982), FLAC (tracks+.cue), lossless

Треклист:
(free jazz, avant-garde) [cd] Connie Crothers - 4 albums, FLAC (tracks+.cue), lossless




Жанр:free jazz, avant-garde
Формат: FLAC (tracks+.cue)
Битрейт аудио: lossless
Источник: what.cd
 
Connie Crothers - Concert in Paris (2014)



Connie Crothers - Concert in Paris (2014)
New Artists ‎– NA1059CD
Piano – Connie Crothers

1 Deuxieme Naissance 11:45
2 Dans Mes Reves 10:40
3 "Every Emotion Is An Art" - Anna 9:26
4 Homage Aux Communards 14:35
5 Espoir 10:37
total: 57`03

 
.log
Exact Audio Copy V1.0 beta 3 from 29. August 2011
EAC extraction logfile from 20. November 2015, 14:26
Connie Crothers / Concert in Paris
Used drive : HL-DT-STDVDRAM SP80NB60 Adapter: 0 ID: 0
Read mode : Secure
Utilize accurate stream : Yes
Defeat audio cache : Yes
Make use of C2 pointers : No
Read offset correction : 6
Overread into Lead-In and Lead-Out : No
Fill up missing offset samples with silence : Yes
Delete leading and trailing silent blocks : No
Null samples used in CRC calculations : Yes
Used interface : Native Win32 interface for Win NT & 2000
Gap handling : Appended to previous track
Used output format : User Defined Encoder
Selected bitrate : 1024 kBit/s
Quality : High
Add ID3 tag : No
Command line compressor : C:\Program Files (x86)\FLAC\flac.exe
Additional command line options : -8 -V -T "ARTIST=%artist%" -T "TITLE=%title%" -T "ALBUM=%albumtitle%" -T "DATE=%year%" -T "TRACKNUMBER=%tracknr%" -T "GENRE=%genre%" -T "PERFORMER=%albuminterpret%" -T "COMPOSER=%composer%" %haslyrics%--tag-from-file=LYRICS="%lyricsfile%"%haslyrics% -T "ALBUMARTIST=%albumartist%" -T "DISCNUMBER=%cdnumber%" -T "TOTALDISCS=%totalcds%" -T "TOTALTRACKS=%numtracks%" -T "COMMENT=%comment%" %source% -o %dest%
TOC of the extracted CD
Track | Start | Length | Start sector | End sector
---------------------------------------------------------
1 | 0:00.00 | 11:45.10 | 0 | 52884
2 | 11:45.10 | 10:40.00 | 52885 | 100884
3 | 22:25.10 | 9:26.00 | 100885 | 143334
4 | 31:51.10 | 14:35.00 | 143335 | 208959
5 | 46:26.10 | 10:37.20 | 208960 | 256754
Track 1
Filename C:\EAC Rips\Connie Crothers - Concert in Paris (2014) [FLAC]\01 Deuxième Naissance.wav
Pre-gap length 0:00:02.00
Peak level 98.1 %
Extraction speed 1.4 X
Track quality 99.9 %
Test CRC 80436D4B
Copy CRC 80436D4B
Track not present in AccurateRip database
Copy OK
Track 2
Filename C:\EAC Rips\Connie Crothers - Concert in Paris (2014) [FLAC]\02 Dans Mes Rêves.wav
Peak level 98.0 %
Extraction speed 1.8 X
Track quality 100.0 %
Test CRC 48156719
Copy CRC 48156719
Track not present in AccurateRip database
Copy OK
Track 3
Filename C:\EAC Rips\Connie Crothers - Concert in Paris (2014) [FLAC]\03 ''Every Emotion Is an Art'' - Anna.wav
Peak level 98.0 %
Extraction speed 2.0 X
Track quality 100.0 %
Test CRC AA9DE4CC
Copy CRC AA9DE4CC
Track not present in AccurateRip database
Copy OK
Track 4
Filename C:\EAC Rips\Connie Crothers - Concert in Paris (2014) [FLAC]\04 Homage Aux Communards.wav
Peak level 98.2 %
Extraction speed 2.3 X
Track quality 100.0 %
Test CRC B9D3DEA4
Copy CRC B9D3DEA4
Track not present in AccurateRip database
Copy OK
Track 5
Filename C:\EAC Rips\Connie Crothers - Concert in Paris (2014) [FLAC]\05 Espoir.wav
Peak level 73.3 %
Extraction speed 2.5 X
Track quality 100.0 %
Test CRC 645D0BF4
Copy CRC 645D0BF4
Track not present in AccurateRip database
Copy OK
None of the tracks are present in the AccurateRip database
No errors occurred
End of status report
---- CUETools DB Plugin V2.1.3
[CTDB TOCID: xkxDlxCqfHCRvC4.yMp3_LZ_nPw-] disk not present in database, Submit result: xkxDlxCqfHCRvC4.yMp3_LZ_nPw- has been uploaded
==== Log checksum CD9F35EE729FB411B163A94A1ACE70C4075A51FAC62BABDE3F7895802E6DEE6C ====
 
.cue
REM GENRE Jazz
REM DATE 2014
REM DISCID 460D5F05
REM COMMENT "ExactAudioCopy v1.0b3"
PERFORMER "Connie Crothers"
TITLE "Concert in Paris"
FILE "01 Deuxième Naissance.wav" WAVE
TRACK 01 AUDIO
TITLE "Deuxième Naissance"
PERFORMER "Connie Crothers"
ISRC QMAAK1489234
INDEX 01 00:00:00
FILE "02 Dans Mes Rêves.wav" WAVE
TRACK 02 AUDIO
TITLE "Dans Mes Rêves"
PERFORMER "Connie Crothers"
ISRC QMAAK1489235
INDEX 01 00:00:00
FILE "03 'Every Emotion Is an Art' - Anna.wav" WAVE
TRACK 03 AUDIO
TITLE "'Every Emotion Is an Art' - Anna"
PERFORMER "Connie Crothers"
ISRC QMAAK1489236
INDEX 01 00:00:00
FILE "04 Homage Aux Communards.wav" WAVE
TRACK 04 AUDIO
TITLE "Homage Aux Communards"
PERFORMER "Connie Crothers"
ISRC QMAAK1489237
INDEX 01 00:00:00
FILE "05 Espoir.wav" WAVE
TRACK 05 AUDIO
TITLE "Espoir"
PERFORMER "Connie Crothers"
ISRC QMAAK1489238
INDEX 01 00:00:00
http://www.discogs.com/Connie-Crothers-Concert-In-Paris/release/6024697
 
Connie Crothers Quartet - Deep Friendship (2014)



Connie Crothers Quartet - Deep Friendship (2014)
Connie Crothers, piano
Richard Tabnik, alto saxophone
Roger Mancuso, drums
Ken Filiano, bass
Recorded Live at the Jazz Room, William Patterson University
November 7, 2010

1. Ontology
2. Roy's Joy
3. Fortunity
4. Linearity
5. Deep Friendship
total: 55`10

 
.log
Exact Audio Copy V1.0 beta 3 from 29. August 2011
EAC extraction logfile from 20. November 2015, 12:46
Connie Crothers Quartet / Deep Friendship
Used drive : HL-DT-STDVDRAM SP80NB60 Adapter: 0 ID: 0
Read mode : Secure
Utilize accurate stream : Yes
Defeat audio cache : Yes
Make use of C2 pointers : No
Read offset correction : 6
Overread into Lead-In and Lead-Out : No
Fill up missing offset samples with silence : Yes
Delete leading and trailing silent blocks : No
Null samples used in CRC calculations : Yes
Used interface : Native Win32 interface for Win NT & 2000
Gap handling : Appended to previous track
Used output format : User Defined Encoder
Selected bitrate : 1024 kBit/s
Quality : High
Add ID3 tag : No
Command line compressor : C:\Program Files (x86)\FLAC\flac.exe
Additional command line options : -8 -V -T "ARTIST=%artist%" -T "TITLE=%title%" -T "ALBUM=%albumtitle%" -T "DATE=%year%" -T "TRACKNUMBER=%tracknr%" -T "GENRE=%genre%" -T "PERFORMER=%albuminterpret%" -T "COMPOSER=%composer%" %haslyrics%--tag-from-file=LYRICS="%lyricsfile%"%haslyrics% -T "ALBUMARTIST=%albumartist%" -T "DISCNUMBER=%cdnumber%" -T "TOTALDISCS=%totalcds%" -T "TOTALTRACKS=%numtracks%" -T "COMMENT=%comment%" %source% -o %dest%
TOC of the extracted CD
Track | Start | Length | Start sector | End sector
---------------------------------------------------------
1 | 0:00.00 | 13:37.01 | 0 | 61275
2 | 13:37.01 | 11:13.14 | 61276 | 111764
3 | 24:50.15 | 11:58.68 | 111765 | 165682
4 | 36:49.08 | 7:40.33 | 165683 | 200215
5 | 44:29.41 | 10:40.26 | 200216 | 248241
Track 1
Filename C:\EAC Rips\Connie Crothers Quartet - Deep Friendship (2014) [FLAC]\01 Ontology.wav
Pre-gap length 0:00:02.00
Peak level 97.7 %
Extraction speed 3.5 X
Track quality 100.0 %
Test CRC 340C2F7E
Copy CRC 340C2F7E
Track not present in AccurateRip database
Copy OK
Track 2
Filename C:\EAC Rips\Connie Crothers Quartet - Deep Friendship (2014) [FLAC]\02 Roy's Joy.wav
Peak level 97.7 %
Extraction speed 4.3 X
Track quality 100.0 %
Test CRC F7BE2071
Copy CRC F7BE2071
Track not present in AccurateRip database
Copy OK
Track 3
Filename C:\EAC Rips\Connie Crothers Quartet - Deep Friendship (2014) [FLAC]\03 Fortuity.wav
Peak level 97.7 %
Extraction speed 4.9 X
Track quality 100.0 %
Test CRC A059CB2C
Copy CRC A059CB2C
Track not present in AccurateRip database
Copy OK
Track 4
Filename C:\EAC Rips\Connie Crothers Quartet - Deep Friendship (2014) [FLAC]\04 Linearity.wav
Peak level 97.7 %
Extraction speed 4.7 X
Track quality 99.9 %
Test CRC E1A51F13
Copy CRC E1A51F13
Track not present in AccurateRip database
Copy OK
Track 5
Filename C:\EAC Rips\Connie Crothers Quartet - Deep Friendship (2014) [FLAC]\05 Deep Friendship.wav
Peak level 97.7 %
Extraction speed 5.7 X
Track quality 100.0 %
Test CRC DC81EBA4
Copy CRC DC81EBA4
Track not present in AccurateRip database
Copy OK
None of the tracks are present in the AccurateRip database
No errors occurred
End of status report
---- CUETools DB Plugin V2.1.3
[CTDB TOCID: VULHQohGA5yhZaJlTymxKIrr6tM-] disk not present in database, Submit result: VULHQohGA5yhZaJlTymxKIrr6tM- has been uploaded
==== Log checksum 6BCE616D3A1CED9ED5A0D439DC64AEC1CBC3613B6B968FB77F33E104519C71D5 ====
 
.cue
REM GENRE Jazz
REM DATE 2014
REM DISCID 3A0CED05
REM COMMENT "ExactAudioCopy v1.0b3"
PERFORMER "Connie Crothers Quartet"
TITLE "Deep Friendship"
FILE "01 Ontology.wav" WAVE
TRACK 01 AUDIO
TITLE "Ontology"
PERFORMER "Connie Crothers Quartet"
INDEX 01 00:00:00
FILE "02 Roy's Joy.wav" WAVE
TRACK 02 AUDIO
TITLE "Roy's Joy"
PERFORMER "Connie Crothers Quartet"
INDEX 01 00:00:00
FILE "03 Fortuity.wav" WAVE
TRACK 03 AUDIO
TITLE "Fortuity"
PERFORMER "Connie Crothers Quartet"
INDEX 01 00:00:00
FILE "04 Linearity.wav" WAVE
TRACK 04 AUDIO
TITLE "Linearity"
PERFORMER "Connie Crothers Quartet"
INDEX 01 00:00:00
FILE "05 Deep Friendship.wav" WAVE
TRACK 05 AUDIO
TITLE "Deep Friendship"
PERFORMER "Connie Crothers Quartet"
INDEX 01 00:00:00
http://www.newartistsrecords.com/pages/1058.html
 
Connie Crothers, Michael Bisio - Session at 475 Kent (2009)



Connie Crothers, Michael Bisio - Session at 475 Kent (2009)
Mutable Music
Bass – Michael Bisio
Cover – Jeff Schlanger
Design – Carin Fortin
Piano – Connie Crothers

1 Improvisation #4 13:11
2 Improvisation #5 12:06
3 Improvisation #7 12:00
4 Resonances 20:44
total: 58`25

 
.log
Exact Audio Copy V1.0 beta 3 from 29. August 2011
EAC extraction logfile from 16. February 2015, 23:27
Connie Crothers/Michael Bisio / Session at 475 Kent
Used drive : HL-DT-STDVDRAM SP60NB50 Adapter: 0 ID: 0
Read mode : Secure
Utilize accurate stream : Yes
Defeat audio cache : Yes
Make use of C2 pointers : No
Read offset correction : 6
Overread into Lead-In and Lead-Out : No
Fill up missing offset samples with silence : Yes
Delete leading and trailing silent blocks : No
Null samples used in CRC calculations : Yes
Used interface : Native Win32 interface for Win NT & 2000
Gap handling : Appended to previous track
Used output format : User Defined Encoder
Selected bitrate : 1024 kBit/s
Quality : High
Add ID3 tag : No
Command line compressor : C:\Program Files (x86)\FLAC\flac.exe
Additional command line options : -8 -V -T "ARTIST=%artist%" -T "TITLE=%title%" -T "ALBUM=%albumtitle%" -T "DATE=%year%" -T "TRACKNUMBER=%tracknr%" -T "GENRE=%genre%" -T "PERFORMER=%albuminterpret%" -T "COMPOSER=%composer%" %haslyrics%--tag-from-file=LYRICS="%lyricsfile%"%haslyrics% -T "ALBUMARTIST=%albumartist%" -T "DISCNUMBER=%cdnumber%" -T "TOTALDISCS=%totalcds%" -T "TOTALTRACKS=%numtracks%" -T "COMMENT=%comment%" %source% -o %dest%
TOC of the extracted CD
Track | Start | Length | Start sector | End sector
---------------------------------------------------------
1 | 0:00.00 | 13:16.20 | 0 | 59719
2 | 13:16.20 | 12:10.44 | 59720 | 114513
3 | 25:26.64 | 12:14.00 | 114514 | 169563
4 | 37:40.64 | 20:44.34 | 169564 | 262897
Track 1
Filename C:\EAC Rips\Connie Crothers, Michael Bisio - Session at 475 Kent (2009) [FLAC]\01 Improvisation #4.wav
Pre-gap length 0:00:02.00
Peak level 99.9 %
Extraction speed 1.3 X
Track quality 100.0 %
Test CRC 051EF754
Copy CRC 051EF754
Track not present in AccurateRip database
Copy OK
Track 2
Filename C:\EAC Rips\Connie Crothers, Michael Bisio - Session at 475 Kent (2009) [FLAC]\02 Improvisation #5.wav
Pre-gap length 0:00:04.58
Peak level 99.9 %
Extraction speed 1.7 X
Track quality 100.0 %
Test CRC 124B928A
Copy CRC 124B928A
Track not present in AccurateRip database
Copy OK
Track 3
Filename C:\EAC Rips\Connie Crothers, Michael Bisio - Session at 475 Kent (2009) [FLAC]\03 Improvisation #7.wav
Pre-gap length 0:00:03.32
Peak level 99.9 %
Extraction speed 2.0 X
Track quality 100.0 %
Test CRC 5EC605C2
Copy CRC 5EC605C2
Track not present in AccurateRip database
Copy OK
Track 4
Filename C:\EAC Rips\Connie Crothers, Michael Bisio - Session at 475 Kent (2009) [FLAC]\04 Resonances.wav
Pre-gap length 0:00:05.17
Peak level 99.9 %
Extraction speed 2.4 X
Track quality 100.0 %
Test CRC 11FCC89C
Copy CRC 11FCC89C
Track not present in AccurateRip database
Copy OK
None of the tracks are present in the AccurateRip database
No errors occurred
End of status report
---- CUETools DB Plugin V2.1.3
[CTDB TOCID: mNmRXHekz610H3t8NEefMTk8YPQ-] disk not present in database, Submit result: mNmRXHekz610H3t8NEefMTk8YPQ- has been uploaded
==== Log checksum D3E24FDE9A43C3D68C13E8BFA289040145F41A8E5EAB7E42FBDC6E43F0988CED ====
 
.cue
REM DATE 2009
REM DISCID 360DB104
REM COMMENT "ExactAudioCopy v1.0b3"
PERFORMER "Connie Crothers/Michael Bisio"
TITLE "Session at 475 Kent"
FILE "01 Improvisation #4.wav" WAVE
TRACK 01 AUDIO
TITLE "Improvisation #4"
PERFORMER "Connie Crothers/Michael Bisio"
INDEX 01 00:00:00
TRACK 02 AUDIO
TITLE "Improvisation #5"
PERFORMER "Connie Crothers/Michael Bisio"
INDEX 00 13:11:51
FILE "02 Improvisation #5.wav" WAVE
INDEX 01 00:00:00
TRACK 03 AUDIO
TITLE "Improvisation #7"
PERFORMER "Connie Crothers/Michael Bisio"
INDEX 00 12:07:20
FILE "03 Improvisation #7.wav" WAVE
INDEX 01 00:00:00
TRACK 04 AUDIO
TITLE "Resonances"
PERFORMER "Connie Crothers/Michael Bisio"
INDEX 00 12:08:62
FILE "04 Resonances.wav" WAVE
INDEX 01 00:00:00
http://www.discogs.com/Connie-Crothers-Michael-Bisi.../release/3222283
 
Max Roach & Connie Crothers - Swish (1982)



Max Roach & Connie Crothers - Swish (1982)
New Artists ‎– NA 1001
Connie Crothers, piano
Max Roach, drums

1. Symbols
2. Let Em Roll
3.Swish
4. Creepin In
5. Ballad No. 1
6. Trading
total: 43`07

 
.log
Exact Audio Copy V1.0 beta 3 from 29. August 2011
EAC extraction logfile from 20. November 2015, 16:19
Max Roach & Connie Crothers / Swish
Used drive : HL-DT-STDVDRAM SP80NB60 Adapter: 0 ID: 0
Read mode : Secure
Utilize accurate stream : Yes
Defeat audio cache : Yes
Make use of C2 pointers : No
Read offset correction : 6
Overread into Lead-In and Lead-Out : No
Fill up missing offset samples with silence : Yes
Delete leading and trailing silent blocks : No
Null samples used in CRC calculations : Yes
Used interface : Native Win32 interface for Win NT & 2000
Gap handling : Appended to previous track
Used output format : User Defined Encoder
Selected bitrate : 1024 kBit/s
Quality : High
Add ID3 tag : No
Command line compressor : C:\Program Files (x86)\FLAC\flac.exe
Additional command line options : -8 -V -T "ARTIST=%artist%" -T "TITLE=%title%" -T "ALBUM=%albumtitle%" -T "DATE=%year%" -T "TRACKNUMBER=%tracknr%" -T "GENRE=%genre%" -T "PERFORMER=%albuminterpret%" -T "COMPOSER=%composer%" %haslyrics%--tag-from-file=LYRICS="%lyricsfile%"%haslyrics% -T "ALBUMARTIST=%albumartist%" -T "DISCNUMBER=%cdnumber%" -T "TOTALDISCS=%totalcds%" -T "TOTALTRACKS=%numtracks%" -T "COMMENT=%comment%" %source% -o %dest%
TOC of the extracted CD
Track | Start | Length | Start sector | End sector
---------------------------------------------------------
1 | 0:00.00 | 7:00.02 | 0 | 31501
2 | 7:00.02 | 6:43.53 | 31502 | 61779
3 | 13:43.55 | 6:15.62 | 61780 | 89966
4 | 19:59.42 | 7:49.68 | 89967 | 125209
5 | 27:49.35 | 5:15.45 | 125210 | 148879
6 | 33:05.05 | 10:01.57 | 148880 | 194011
Track 1
Filename C:\EAC Rips\Max Roach & Connie Crothers - Swish (1982) [FLAC]\01 Symbols.wav
Pre-gap length 0:00:02.00
Peak level 69.8 %
Extraction speed 1.3 X
Track quality 100.0 %
Test CRC 8A83747B
Copy CRC 8A83747B
Track not present in AccurateRip database
Copy OK
Track 2
Filename C:\EAC Rips\Max Roach & Connie Crothers - Swish (1982) [FLAC]\02 Let 'Em Roll.wav
Pre-gap length 0:00:05.66
Peak level 78.6 %
Extraction speed 1.4 X
Track quality 99.9 %
Test CRC CB119454
Copy CRC CB119454
Track not present in AccurateRip database
Copy OK
Track 3
Filename C:\EAC Rips\Max Roach & Connie Crothers - Swish (1982) [FLAC]\03 Swish.wav
Pre-gap length 0:00:04.73
Peak level 75.1 %
Extraction speed 1.6 X
Track quality 99.9 %
Test CRC F682B803
Copy CRC F682B803
Track not present in AccurateRip database
Copy OK
Track 4
Filename C:\EAC Rips\Max Roach & Connie Crothers - Swish (1982) [FLAC]\04 Creepin' In.wav
Pre-gap length 0:00:05.29
Peak level 77.8 %
Extraction speed 1.9 X
Track quality 100.0 %
Test CRC C647118A
Copy CRC C647118A
Track not present in AccurateRip database
Copy OK
Track 5
Filename C:\EAC Rips\Max Roach & Connie Crothers - Swish (1982) [FLAC]\05 Ballad No. I.wav
Pre-gap length 0:00:05.30
Peak level 57.8 %
Extraction speed 2.0 X
Track quality 100.0 %
Test CRC 58BDADBD
Copy CRC 58BDADBD
Track not present in AccurateRip database
Copy OK
Track 6
Filename C:\EAC Rips\Max Roach & Connie Crothers - Swish (1982) [FLAC]\06 Trading.wav
Pre-gap length 0:00:04.50
Peak level 78.2 %
Extraction speed 2.2 X
Track quality 100.0 %
Test CRC B038D369
Copy CRC B038D369
Track not present in AccurateRip database
Copy OK
None of the tracks are present in the AccurateRip database
No errors occurred
End of status report
---- CUETools DB Plugin V2.1.3
[CTDB TOCID: HP7lYk1X9rb6yrMpu67b0CIdT3Q-] disk not present in database, Submit result: HP7lYk1X9rb6yrMpu67b0CIdT3Q- has been uploaded
==== Log checksum 97B23592487B43AB88B1B2D1B641D34FA25EE7D5162C123FC92B071574888BCD ====
 
.cue
REM GENRE Jazz
REM DATE 1982
REM DISCID 450A1A06
REM COMMENT "ExactAudioCopy v1.0b3"
CATALOG 0000000000000
PERFORMER "Max Roach & Connie Crothers"
TITLE "Swish"
FILE "01 Symbols.wav" WAVE
TRACK 01 AUDIO
TITLE "Symbols"
PERFORMER "Max Roach & Connie Crothers"
INDEX 01 00:00:00
TRACK 02 AUDIO
TITLE "Let 'Em Roll"
PERFORMER "Max Roach & Connie Crothers"
INDEX 00 06:54:27
FILE "02 Let 'Em Roll.wav" WAVE
INDEX 01 00:00:00
TRACK 03 AUDIO
TITLE "Swish"
PERFORMER "Max Roach & Connie Crothers"
INDEX 00 06:38:73
FILE "03 Swish.wav" WAVE
INDEX 01 00:00:00
TRACK 04 AUDIO
TITLE "Creepin' In"
PERFORMER "Max Roach & Connie Crothers"
INDEX 00 06:10:40
FILE "04 Creepin' In.wav" WAVE
INDEX 01 00:00:00
TRACK 05 AUDIO
TITLE "Ballad No. I"
PERFORMER "Max Roach & Connie Crothers"
INDEX 00 07:44:45
FILE "05 Ballad No. I.wav" WAVE
INDEX 01 00:00:00
TRACK 06 AUDIO
TITLE "Trading"
PERFORMER "Max Roach & Connie Crothers"
INDEX 00 05:11:07
FILE "06 Trading.wav" WAVE
INDEX 01 00:00:00
http://www.newartistsrecords.com/pages/1001.html
другие релизы
По всем вопросам пишите личное сообщение пользователю M0p94ok.
17:55
152
Нет комментариев. Ваш будет первым!