Вы используете незарегистрированную версию компонента "Вкладки"!

Поиск

(Free Improvisation, Avant-Garde Jazz) [CD] The Turbine! (Hamid Drake, Harrison Bankhead, Benjamin Duboc, Ramon Lopez) - Entropy/Enthalpy (2CD) - 2015 [RogueArt], FLAC (tracks+.cue), lossless

(Free Improvisation, Avant-Garde Jazz) [CD] The Turbine! (Hamid Drake, Harrison Bankhead, Benjamin Duboc, Ramon Lopez) - Entropy/Enthalpy (2CD) - 2015 [RogueArt], FLAC (tracks+.cue), lossless
Треклист:
THE TURBINE!
ENTROPY/ENTHALPY
Жанр: Free Improvisation, Avant-Garde Jazz
Страна-производитель диска: France
Год издания: 2015
Издатель (лейбл): RogueArt
Номер по каталогу: ROG-0058
Страна исполнителя (группы): USA/France
Аудиокодек: FLAC (*.flac)
Тип рипа: tracks+.cue
Битрейт аудио: lossless
Продолжительность: 55:25 + 62:33
Источник (релизер): спасибо WarehouseMouse
Наличие сканов: нет
Треклист:
CD1
1 Rotor/Stator
2 Thermodynamic Potential
3 Electric Network
4 Steaming
5 Magnetic Induction
6 Sparks in the Dark
7 Natural Energy
8 Compression/Depression
CD2
1 Electrical Coil
2 Relief Valves
3 500 Megawatts
4 Free Power
 
Лог создания рипа
Exact Audio Copy V1.0 beta 3 from 29. August 2011
EAC extraction logfile from 27. November 2015, 19:58
The Turbine! / Entropy/Enthalpy Disc 1
Used drive : HL-DT-STDVDRAM SP80NB60 Adapter: 0 ID: 0
Read mode : Secure
Utilize accurate stream : Yes
Defeat audio cache : Yes
Make use of C2 pointers : No
Read offset correction : 6
Overread into Lead-In and Lead-Out : No
Fill up missing offset samples with silence : Yes
Delete leading and trailing silent blocks : No
Null samples used in CRC calculations : Yes
Used interface : Native Win32 interface for Win NT & 2000
Gap handling : Appended to previous track
Used output format : User Defined Encoder
Selected bitrate : 1024 kBit/s
Quality : High
Add ID3 tag : No
Command line compressor : C:\Program Files (x86)\FLAC\flac.exe
Additional command line options : -8 -V -T "ARTIST=%artist%" -T "TITLE=%title%" -T "ALBUM=%albumtitle%" -T "DATE=%year%" -T "TRACKNUMBER=%tracknr%" -T "GENRE=%genre%" -T "PERFORMER=%albuminterpret%" -T "COMPOSER=%composer%" %haslyrics%--tag-from-file=LYRICS="%lyricsfile%"%haslyrics% -T "ALBUMARTIST=%albumartist%" -T "DISCNUMBER=%cdnumber%" -T "TOTALDISCS=%totalcds%" -T "TOTALTRACKS=%numtracks%" -T "COMMENT=%comment%" %source% -o %dest%
TOC of the extracted CD
Track | Start | Length | Start sector | End sector
---------------------------------------------------------
1 | 0:00.00 | 8:48.62 | 0 | 39661
2 | 8:48.62 | 7:49.67 | 39662 | 74903
3 | 16:38.54 | 6:44.41 | 74904 | 105244
4 | 23:23.20 | 5:18.02 | 105245 | 129096
5 | 28:41.22 | 5:47.20 | 129097 | 155141
6 | 34:28.42 | 9:30.06 | 155142 | 197897
7 | 43:58.48 | 7:19.61 | 197898 | 230883
8 | 51:18.34 | 4:42.37 | 230884 | 252070
Track 1
Filename C:\EAC Rips\The Turbine! - Entropy Enthalpy (2015) [FLAC]\01 Rotor,Stator.wav
Pre-gap length 0:00:02.00
Peak level 100.0 %
Extraction speed 2.9 X
Track quality 100.0 %
Test CRC 50AF01AC
Copy CRC 50AF01AC
Accurately ripped (confidence 1) [517C2F9A] (AR v2)
Copy OK
Track 2
Filename C:\EAC Rips\The Turbine! - Entropy Enthalpy (2015) [FLAC]\02 Thermodynamic Potential.wav
Pre-gap length 0:00:05.08
Peak level 100.0 %
Extraction speed 3.4 X
Track quality 100.0 %
Test CRC 07675BB1
Copy CRC 07675BB1
Accurately ripped (confidence 1) [C41B66DB] (AR v2)
Copy OK
Track 3
Filename C:\EAC Rips\The Turbine! - Entropy Enthalpy (2015) [FLAC]\03 Electric Network.wav
Pre-gap length 0:00:04.98
Peak level 100.0 %
Extraction speed 3.8 X
Track quality 100.0 %
Test CRC 637DA366
Copy CRC 637DA366
Accurately ripped (confidence 1) [C35EB17E] (AR v2)
Copy OK
Track 4
Filename C:\EAC Rips\The Turbine! - Entropy Enthalpy (2015) [FLAC]\04 Steaming.wav
Pre-gap length 0:00:04.94
Peak level 98.4 %
Extraction speed 3.5 X
Track quality 99.9 %
Test CRC 4162111A
Copy CRC 4162111A
Accurately ripped (confidence 1) [A815859A] (AR v2)
Copy OK
Track 5
Filename C:\EAC Rips\The Turbine! - Entropy Enthalpy (2015) [FLAC]\05 Magnetic Induction.wav
Pre-gap length 0:00:05.89
Peak level 98.4 %
Extraction speed 3.8 X
Track quality 99.9 %
Test CRC 6D98C58F
Copy CRC 6D98C58F
Accurately ripped (confidence 1) [B671B81D] (AR v2)
Copy OK
Track 6
Filename C:\EAC Rips\The Turbine! - Entropy Enthalpy (2015) [FLAC]\06 Sparks in the Dark.wav
Pre-gap length 0:00:04.64
Peak level 100.0 %
Extraction speed 4.8 X
Track quality 100.0 %
Test CRC F2DF428A
Copy CRC F2DF428A
Accurately ripped (confidence 1) [A19FDABE] (AR v2)
Copy OK
Track 7
Filename C:\EAC Rips\The Turbine! - Entropy Enthalpy (2015) [FLAC]\07 Natural Energy.wav
Pre-gap length 0:00:05.09
Peak level 100.0 %
Extraction speed 5.0 X
Track quality 100.0 %
Test CRC 4FBE0348
Copy CRC 4FBE0348
Accurately ripped (confidence 1) [0C90A5AB] (AR v2)
Copy OK
Track 8
Filename C:\EAC Rips\The Turbine! - Entropy Enthalpy (2015) [FLAC]\08 Compression,Depression.wav
Pre-gap length 0:00:04.98
Peak level 100.0 %
Extraction speed 5.0 X
Track quality 100.0 %
Test CRC 60671AF6
Copy CRC 60671AF6
Accurately ripped (confidence 1) [ECE9836A] (AR v2)
Copy OK
All tracks accurately ripped
No errors occurred
End of status report
---- CUETools DB Plugin V2.1.3
[CTDB TOCID: AWMdJu6OnMR8XeBiA_bL2TlCKA4-] found, Submit result: AWMdJu6OnMR8XeBiA_bL2TlCKA4- has been confirmed
[d59178e9] (1/1) Accurately ripped
==== Log checksum 94349BF5FB781F0EEB1D6C3875741514AB768E083E3EAEB0258119F6611A3C64 ====


Exact Audio Copy V1.0 beta 3 from 29. August 2011
EAC extraction logfile from 27. November 2015, 21:07
The Turbine! / Entropy/Enthalpy Disc 2
Used drive : HL-DT-STDVDRAM SP80NB60 Adapter: 0 ID: 0
Read mode : Secure
Utilize accurate stream : Yes
Defeat audio cache : Yes
Make use of C2 pointers : No
Read offset correction : 6
Overread into Lead-In and Lead-Out : No
Fill up missing offset samples with silence : Yes
Delete leading and trailing silent blocks : No
Null samples used in CRC calculations : Yes
Used interface : Native Win32 interface for Win NT & 2000
Gap handling : Appended to previous track
Used output format : User Defined Encoder
Selected bitrate : 1024 kBit/s
Quality : High
Add ID3 tag : No
Command line compressor : C:\Program Files (x86)\FLAC\flac.exe
Additional command line options : -8 -V -T "ARTIST=%artist%" -T "TITLE=%title%" -T "ALBUM=%albumtitle%" -T "DATE=%year%" -T "TRACKNUMBER=%tracknr%" -T "GENRE=%genre%" -T "PERFORMER=%albuminterpret%" -T "COMPOSER=%composer%" %haslyrics%--tag-from-file=LYRICS="%lyricsfile%"%haslyrics% -T "ALBUMARTIST=%albumartist%" -T "DISCNUMBER=%cdnumber%" -T "TOTALDISCS=%totalcds%" -T "TOTALTRACKS=%numtracks%" -T "COMMENT=%comment%" %source% -o %dest%
TOC of the extracted CD
Track | Start | Length | Start sector | End sector
---------------------------------------------------------
1 | 0:00.00 | 19:59.50 | 0 | 89974
2 | 19:59.50 | 6:11.14 | 89975 | 117813
3 | 26:10.64 | 8:13.03 | 117814 | 154791
4 | 34:23.67 | 28:22.18 | 154792 | 282459
Track 1
Filename C:\EAC Rips\The Turbine! - Entropy Enthalpy (2015) [FLAC]\01 Electric Coil.wav
Pre-gap length 0:00:02.00
Peak level 100.0 %
Extraction speed 1.4 X
Track quality 100.0 %
Test CRC 2F534940
Copy CRC 2F534940
Accurately ripped (confidence 1) [BDF554E5] (AR v2)
Copy OK
Track 2
Filename C:\EAC Rips\The Turbine! - Entropy Enthalpy (2015) [FLAC]\02 Relief Valves.wav
Pre-gap length 0:00:05.30
Peak level 100.0 %
Extraction speed 1.6 X
Track quality 99.9 %
Test CRC 786F8A64
Copy CRC 786F8A64
Accurately ripped (confidence 1) [9AE61F67] (AR v2)
Copy OK
Track 3
Filename C:\EAC Rips\The Turbine! - Entropy Enthalpy (2015) [FLAC]\03 500 Megawatts.wav
Pre-gap length 0:00:02.48
Peak level 100.0 %
Extraction speed 1.9 X
Track quality 100.0 %
Test CRC 41602757
Copy CRC 41602757
Accurately ripped (confidence 1) [A38B860F] (AR v2)
Copy OK
Track 4
Filename C:\EAC Rips\The Turbine! - Entropy Enthalpy (2015) [FLAC]\04 Free Power.wav
Pre-gap length 0:00:05.02
Peak level 100.0 %
Extraction speed 2.3 X
Track quality 99.9 %
Test CRC 585C832B
Copy CRC 585C832B
Accurately ripped (confidence 1) [8902CECC] (AR v2)
Copy OK
All tracks accurately ripped
No errors occurred
End of status report
---- CUETools DB Plugin V2.1.3
[CTDB TOCID: 8P2mhWO65tj.6X1L8ZsdOOKfMEM-] found, Submit result: 8P2mhWO65tj.6X1L8ZsdOOKfMEM- has been confirmed
[5422d5c0] (1/1) Accurately ripped
==== Log checksum 8FECD70B6AB66395A72A09E5AEA55DC6EE0586AA1B5F108E8C5AAA82DEB0A201 ====
 
Содержание индексной карты (.CUE)
REM DATE 2015
REM DISCID 420D2008
REM COMMENT "ExactAudioCopy v1.0b3"
PERFORMER "The Turbine!"
TITLE "Entropy/Enthalpy Disc 1"
FILE "01 Rotor,Stator.wav" WAVE
TRACK 01 AUDIO
TITLE "Rotor/Stator"
PERFORMER "The Turbine!"
ISRC FR9W11422475
INDEX 01 00:00:00
TRACK 02 AUDIO
TITLE "Thermodynamic Potential"
PERFORMER "The Turbine!"
ISRC FR9W11422476
INDEX 00 08:43:56
FILE "02 Thermodynamic Potential.wav" WAVE
INDEX 01 00:00:00
TRACK 03 AUDIO
TITLE "Electric Network"
PERFORMER "The Turbine!"
ISRC FR9W11422477
INDEX 00 07:44:68
FILE "03 Electric Network.wav" WAVE
INDEX 01 00:00:00
TRACK 04 AUDIO
TITLE "Steaming"
PERFORMER "The Turbine!"
ISRC FR9W11422478
INDEX 00 06:39:45
FILE "04 Steaming.wav" WAVE
INDEX 01 00:00:00
TRACK 05 AUDIO
TITLE "Magnetic Induction"
PERFORMER "The Turbine!"
ISRC FR9W11422479
INDEX 00 05:12:10
FILE "05 Magnetic Induction.wav" WAVE
INDEX 01 00:00:00
TRACK 06 AUDIO
TITLE "Sparks in the Dark"
PERFORMER "The Turbine!"
ISRC FR9W11422480
INDEX 00 05:42:47
FILE "06 Sparks in the Dark.wav" WAVE
INDEX 01 00:00:00
TRACK 07 AUDIO
TITLE "Natural Energy"
PERFORMER "The Turbine!"
ISRC FR9W11422481
INDEX 00 09:24:74
FILE "07 Natural Energy.wav" WAVE
INDEX 01 00:00:00
TRACK 08 AUDIO
TITLE "Compression/Depression"
PERFORMER "The Turbine!"
ISRC FR9W11422482
INDEX 00 07:14:62
FILE "08 Compression,Depression.wav" WAVE
INDEX 01 00:00:00


REM DATE 2015
REM DISCID 220EB604
REM COMMENT "ExactAudioCopy v1.0b3"
PERFORMER "The Turbine!"
TITLE "Entropy/Enthalpy Disc 2"
FILE "01 Electric Coil.wav" WAVE
TRACK 01 AUDIO
TITLE "Electric Coil"
PERFORMER "The Turbine!"
ISRC FR9W11422483
INDEX 01 00:00:00
TRACK 02 AUDIO
TITLE "Relief Valves"
PERFORMER "The Turbine!"
ISRC FR9W11422484
INDEX 00 19:54:27
FILE "02 Relief Valves.wav" WAVE
INDEX 01 00:00:00
TRACK 03 AUDIO
TITLE "500 Megawatts"
PERFORMER "The Turbine!"
ISRC FR9W11422485
INDEX 00 06:08:53
FILE "03 500 Megawatts.wav" WAVE
INDEX 01 00:00:00
TRACK 04 AUDIO
TITLE "Free Power"
PERFORMER "The Turbine!"
ISRC FR9W11422486
INDEX 00 08:08:01
FILE "04 Free Power.wav" WAVE
INDEX 01 00:00:00
 
Об альбоме
Drawn from the network of nearly 80 French and American musicians known as The Bridge, The Turbine! is a unique quartet, all rhythm section—to use convention as a point of reference, not reverence. The group brings drummer Hamid Drake and bassist Harrison Bankhead together with drummer Ramon Lopez and bassist Benjamin Duboc. Given the members’ pedigrees, as well as their chosen name (and punctuation!), we shouldn’t be surprised to find that the music on Entropy/Enthalpy, a two-disc document of their 2014 French tour, is full of concentrated energy and power. Far from mechanical, there is something—perhaps many things—machine-like about the collective playing here. Each track is credited to the entire group, reflecting a perfect union of parts where the failure of one component would shut the whole thing down. And the doubling of the traditionally supportive instruments creates, to a degree, an environment of relative anonymity in which I, at least, despite some educated speculation, can’t always be sure which bassist or drummer is playing what. The effect is to subsume individual personalities under a common identity and allow listeners to sharpen their focus on the sounds themselves. But I’d rather not expose an embarrassing scientific illiteracy by trying to indulge the “turbine” metaphor in any more detail—though the track titles invite it. So let’s jump straight in.
Starting with “Rotor/Stator,” the first disc’s eight tracks demonstrate the technical and stylistic range of this transatlantic set-up—from high-tension bowing to soulful fingered lines by Bankhead and Duboc, from freeform full-kit bombast to syncopated hand drum patterns by Drake and Lopez. On the opener the group take time to ease in and explore before finding balance on a seams-bursting and subtly shifting percussive through-line. By the third piece, “Electric Network,” the quartet is really cooking: during the infectious hand drum and brush groove that starts things off you can hear somebody say, “Whoa!” and “Yeah, baby!” Soon there’s more singing (and laughter) as a call and response picks up between sliding bass notes and vocals. Things turn from playful to plaintive, though, with “Steaming,” the stunning follow-up. Here we find Drake summoning resonant tones from his frame drum, while the basses bow and pluck out gorgeously tender repeating melodic phrases. While every piece showcases superb drumming and bass playing, of course, of special note to drummers will be “Natural Energy,” near the end of the first disc, a seven-minute percussion duet. While Drake and Lopez resist the temptation to engage in an old-fashioned back-and-forth drum battle, they do pay homage to tradition by falling into Max Roach’s “The Drum Also Waltzes” halfway through.
Disc two introduces several special guests to the Turbine! quartet, starting with French trumpeter Jean-Luc Cappozzo. On the twenty-minute “Electrical Coil,” Cappozzo layers his clear, deliberate phrases over an ongoing bass duet. Later, when the piece has developed into driving funk he offers another nod to the past, taking a cue from one of the bassists to cite the “Milestones” theme. William Parker adds yet another double bass to the group on the brooding “Relief Valves” and “500 Megawatts,” featuring some nice arco/vocal unisons. The closing track, “Free Power,” is a marathon twenty-eight minute improvisation that shows alto saxophonist Lionel Garcin completely at home with The Turbine! From dark, slowly developing lines as the group gathers energy to agile, rhythmic blowing over the drummers’ funky groove a quarter of an hour later, Garcin’s telepathic interplay with the quartet is a highlight—only the last of many—of Entropy/Enthalpy. (Eric McDowell, freejazzblog.org)
 
Состав

Harrison Bankhead - double bass
Benjamin Duboc - double bass
Hamid Drake - drums, frame drum, vocal
Ramon Lopez - drums, tabla, percussions
+ special guests:
Jean-Luc Cappozzo - trumpet (2:1)
Lionel Garcin - alto saxophone (2:4)
William Parker - double bass (2:2, 2:3)
По всем вопросам пишите личное сообщение пользователю M0p94ok.
17:56
139
Нет комментариев. Ваш будет первым!