Вы используете незарегистрированную версию компонента "Вкладки"!

Поиск

(free jazz, avant-garde) [cd] Conference Call (Ullmann, Stevens, Fonda, Schuller) - What About The... 2010, 2cd,FLAC (tracks+.cue), lossless

(free jazz, avant-garde) [cd] Conference Call (Ullmann, Stevens, Fonda, Schuller) - What About The... 2010, 2cd,FLAC (tracks+.cue), lossless
Треклист:
(free jazz, avant-garde) [cd] Conference Call (Ullmann, Stevens, Fonda, Schuller) - What About The... 2010, 2cd,FLAC (tracks+.cue), lossless


Conference Call - What About The... 2010

Жанр:free jazz, avant-garde
Год выпуска: 2010
Издатель (лейбл):Not Two Records / MW 829-2
Формат: FLAC (tracks+.cue)
Битрейт аудио: lossless
Продолжительность: 1`38`52
Источник: what.cd
Bass – Joe Fonda
Drums, Percussion – George Schuller
Piano – Michael Jefry Stevens
Tenor Saxophone, Soprano Saxophone, Bass Clarinet – Gebhard Ullmann
Recorded At Alchemia, 22 April 2007
 
disk 1


disk 1

1-1 After Like (Part 1) 12:05
1-2 After Like (Part 2) 6:08
1-3 What About The Future? 7:49
1-4 Circle 9:12
1-5 Conference Call 17:25

 
.log
X Lossless Decoder version 20151214 (149.1)
XLD extraction logfile from 2016-01-22 20:12:10 +0300
Conference Call / What About The...????
Used drive : HL-DT-ST DVDRW GX30N (revision RP09)
Media type : Pressed CD
Ripper mode : XLD Secure Ripper
Disable audio cache : OK for the drive with a cache less than 1375KiB
Make use of C2 pointers : NO
Read offset correction : 6
Max retry count : 100
Gap status : Analyzed, Appended (except HTOA)
TOC of the extracted CD
Track | Start | Length | Start sector | End sector
---------------------------------------------------------
1 | 00:00:00 | 12:05:14 | 0 | 54388
2 | 12:05:14 | 06:07:74 | 54389 | 81987
3 | 18:13:13 | 07:49:21 | 81988 | 117183
4 | 26:02:34 | 09:11:60 | 117184 | 158568
5 | 35:14:19 | 17:25:41 | 158569 | 236984
AccurateRip Summary
Disc not found in AccurateRip DB.
All Tracks
Album gain : -6.49 dB
Peak : 0.966492
Statistics
Read error : 0
Jitter error (maybe fixed) : 0
Retry sector count : 0
Damaged sector count : 0
Track 01
Filename : /Users/anch/Music/Grabbed/Conference Call/F 2010 - What About The...????/01 - After Like (Part 1).flac
Pre-gap length : 00:02:00
Track gain : -7.66 dB
Peak : 0.966492
CRC32 hash (test run) : E6D634B5
CRC32 hash : E6D634B5
CRC32 hash (skip zero) : BBE0081A
AccurateRip v1 signature : 9AB50C63
AccurateRip v2 signature : 10C57FB2
->Track not present in AccurateRip database.
Statistics
Read error : 0
Jitter error (maybe fixed) : 0
Retry sector count : 0
Damaged sector count : 0
Track 02
Filename : /Users/anch/Music/Grabbed/Conference Call/F 2010 - What About The...????/02 - After Like (Part 2).flac
Track gain : -6.82 dB
Peak : 0.966431
CRC32 hash (test run) : AB531837
CRC32 hash : AB531837
CRC32 hash (skip zero) : C45A2019
AccurateRip v1 signature : F7B40D5A
AccurateRip v2 signature : 74C3B8D0
->Track not present in AccurateRip database.
Statistics
Read error : 0
Jitter error (maybe fixed) : 0
Retry sector count : 0
Damaged sector count : 0
Track 03
Filename : /Users/anch/Music/Grabbed/Conference Call/F 2010 - What About The...????/03 - What About The Future?.flac
Track gain : -2.29 dB
Peak : 0.966248
CRC32 hash (test run) : 7442D57E
CRC32 hash : 7442D57E
CRC32 hash (skip zero) : D5E817AD
AccurateRip v1 signature : E1137210
AccurateRip v2 signature : 9E44CFEE
->Track not present in AccurateRip database.
Statistics
Read error : 0
Jitter error (maybe fixed) : 0
Retry sector count : 0
Damaged sector count : 0
Track 04
Filename : /Users/anch/Music/Grabbed/Conference Call/F 2010 - What About The...????/04 - Circle.flac
Pre-gap length : 00:04:51
Track gain : -5.68 dB
Peak : 0.966339
CRC32 hash (test run) : 452BB425
CRC32 hash : 452BB425
CRC32 hash (skip zero) : 0F916E57
AccurateRip v1 signature : 85624C0E
AccurateRip v2 signature : FD06C239
->Track not present in AccurateRip database.
Statistics
Read error : 0
Jitter error (maybe fixed) : 0
Retry sector count : 0
Damaged sector count : 0
Track 05
Filename : /Users/anch/Music/Grabbed/Conference Call/F 2010 - What About The...????/05 - Conference Call.flac
Pre-gap length : 00:02:00
Track gain : -5.53 dB
Peak : 0.966492
CRC32 hash (test run) : FF5C89CB
CRC32 hash : FF5C89CB
CRC32 hash (skip zero) : 4A11330D
AccurateRip v1 signature : 0648A37E
AccurateRip v2 signature : CD5436CC
->Track not present in AccurateRip database.
Statistics
Read error : 0
Jitter error (maybe fixed) : 0
Retry sector count : 0
Damaged sector count : 0
No errors occurred
End of status report
-----BEGIN XLD SIGNATURE-----
nd_tYK6H0t3FeA44ymod0eYIAJo..rQNrtueVx0VWqtk4hCGZLdA.sVQt2FXrpx_1968K9kGL5V7UTUlkXRB8Cpsi5DK5bDAhutfWKO
-----END XLD SIGNATURE-----
 
.cue
TITLE "What About The...????"
PERFORMER "Conference Call"
REM GENRE "Free Jazz"
REM DATE "2010"
REM DISCNUMBER 1
REM TOTALDISCS 2
REM DISCID 3B0C5705
REM REPLAYGAIN_ALBUM_GAIN -6.49 dB
REM REPLAYGAIN_ALBUM_PEAK 0.966492
FILE "01 - After Like (Part 1).flac" WAVE
TRACK 01 AUDIO
TITLE "After Like (Part 1)"
PERFORMER "Conference Call"
REM COMMENT "Recorded At Alchemia on 22 April 2007"
REM REPLAYGAIN_TRACK_GAIN -7.66 dB
REM REPLAYGAIN_TRACK_PEAK 0.966492
INDEX 01 00:00:00
FILE "02 - After Like (Part 2).flac" WAVE
TRACK 02 AUDIO
TITLE "After Like (Part 2)"
PERFORMER "Conference Call"
REM COMMENT "Recorded At Alchemia on 22 April 2007"
REM REPLAYGAIN_TRACK_GAIN -6.82 dB
REM REPLAYGAIN_TRACK_PEAK 0.966431
INDEX 01 00:00:00
FILE "03 - What About The Future.flac" WAVE
TRACK 03 AUDIO
TITLE "What About The Future?"
PERFORMER "Conference Call"
REM COMMENT "Recorded At Alchemia on 22 April 2007"
REM REPLAYGAIN_TRACK_GAIN -2.29 dB
REM REPLAYGAIN_TRACK_PEAK 0.966248
INDEX 01 00:00:00
TRACK 04 AUDIO
TITLE "Circle"
PERFORMER "Conference Call"
REM COMMENT "Recorded At Alchemia on 22 April 2007"
REM REPLAYGAIN_TRACK_GAIN -5.68 dB
REM REPLAYGAIN_TRACK_PEAK 0.966339
INDEX 00 07:44:45
FILE "04 - Circle.flac" WAVE
INDEX 01 00:00:00
TRACK 05 AUDIO
TITLE "Conference Call"
PERFORMER "Conference Call"
REM COMMENT "Recorded At Alchemia on 22 April 2007"
REM REPLAYGAIN_TRACK_GAIN -5.53 dB
REM REPLAYGAIN_TRACK_PEAK 0.966492
INDEX 00 09:09:60
FILE "05 - Conference Call.flac" WAVE
INDEX 01 00:00:00
 
disk 2


disk 2

2-1 Litmus 6:16
2-2 After Like (Part 3) 14:07
2-3 Could This Be A Polka? 11:00
2-4 Translucent Tones (Gestalt In Three) 8:03
2-5 What About…? 6:46

 
.log
X Lossless Decoder version 20151214 (149.1)
XLD extraction logfile from 2016-01-22 21:27:21 +0300
Conference Call / What About The...????
Used drive : HL-DT-ST DVDRW GX30N (revision RP09)
Media type : Pressed CD
Ripper mode : XLD Secure Ripper
Disable audio cache : OK for the drive with a cache less than 1375KiB
Make use of C2 pointers : NO
Read offset correction : 6
Max retry count : 100
Gap status : Analyzed, Appended (except HTOA)
TOC of the extracted CD
Track | Start | Length | Start sector | End sector
---------------------------------------------------------
1 | 00:00:00 | 14:07:20 | 0 | 63544
2 | 14:07:20 | 11:00:46 | 63545 | 113090
3 | 25:07:66 | 06:15:27 | 113091 | 141242
4 | 31:23:18 | 08:03:30 | 141243 | 177497
5 | 39:26:48 | 06:45:40 | 177498 | 207912
AccurateRip Summary (DiscID: 000abb3a-00305060-4f0ad405)
Track 01 : OK (v1, confidence 1/1)
Track 02 : OK (v1, confidence 1/1)
Track 03 : OK (v1, confidence 1/1)
Track 04 : OK (v1, confidence 1/1)
Track 05 : OK (v1, confidence 1/1)
->All tracks accurately ripped.
All Tracks
Album gain : -6.89 dB
Peak : 0.966522
Statistics
Read error : 0
Jitter error (maybe fixed) : 0
Retry sector count : 0
Damaged sector count : 0
Track 01
Filename : /Users/anch/Music/Grabbed/Conference Call/F 2010 - What About The.../02/01 - Litmus.flac
Pre-gap length : 00:02:00
Track gain : -6.89 dB
Peak : 0.966431
CRC32 hash (test run) : 18B0455D
CRC32 hash : 18B0455D
CRC32 hash (skip zero) : 27081538
AccurateRip v1 signature : 69A6C928
AccurateRip v2 signature : 9138CDFF
->Accurately ripped (v1, confidence 1/1)
Statistics
Read error : 0
Jitter error (maybe fixed) : 0
Retry sector count : 0
Damaged sector count : 0
Track 02
Filename : /Users/anch/Music/Grabbed/Conference Call/F 2010 - What About The.../02/02 - After Like (Part 3).flac
Track gain : -6.25 dB
Peak : 0.966400
CRC32 hash (test run) : 29F560E4
CRC32 hash : 29F560E4
CRC32 hash (skip zero) : 7F0CF59E
AccurateRip v1 signature : 24CE3446
AccurateRip v2 signature : 9386708F
->Accurately ripped (v1, confidence 1/1)
Statistics
Read error : 0
Jitter error (maybe fixed) : 0
Retry sector count : 0
Damaged sector count : 0
Track 03
Filename : /Users/anch/Music/Grabbed/Conference Call/F 2010 - What About The.../02/03 - Could This Be A Polka.flac
Pre-gap length : 00:04:00
Track gain : -8.35 dB
Peak : 0.966522
CRC32 hash (test run) : 83D80FEB
CRC32 hash : 83D80FEB
CRC32 hash (skip zero) : 7ACFE20A
AccurateRip v1 signature : 7C1FB26C
AccurateRip v2 signature : F941B5C9
->Accurately ripped (v1, confidence 1/1)
Statistics
Read error : 0
Jitter error (maybe fixed) : 0
Retry sector count : 0
Damaged sector count : 0
Track 04
Filename : /Users/anch/Music/Grabbed/Conference Call/F 2010 - What About The.../02/04 - Translucent Tones (Gestalt In Three).flac
Pre-gap length : 00:04:60
Track gain : -0.82 dB
Peak : 0.966187
CRC32 hash (test run) : A4260383
CRC32 hash : A4260383
CRC32 hash (skip zero) : 381440B5
AccurateRip v1 signature : AF69E12F
AccurateRip v2 signature : B4F698F5
->Accurately ripped (v1, confidence 1/1)
Statistics
Read error : 0
Jitter error (maybe fixed) : 0
Retry sector count : 0
Damaged sector count : 0
Track 05
Filename : /Users/anch/Music/Grabbed/Conference Call/F 2010 - What About The.../02/05 - What About….flac
Track gain : -6.83 dB
Peak : 0.966400
CRC32 hash (test run) : F616B197
CRC32 hash : F616B197
CRC32 hash (skip zero) : A035E7F5
AccurateRip v1 signature : 7AF5A707
AccurateRip v2 signature : 5EFAC131
->Accurately ripped (v1, confidence 1/1)
Statistics
Read error : 0
Jitter error (maybe fixed) : 0
Retry sector count : 0
Damaged sector count : 0
No errors occurred
End of status report
-----BEGIN XLD SIGNATURE-----
2xKuQqZJ0Zh2NndJHHH.0_nwqj4aCp7ymeefc6v6o3pNUU_CrdBobmaFaWoN8Cn3ku1c4kNwHaNbz83N8OitLkZBbdrDNJUaS5akMmO
-----END XLD SIGNATURE-----
 
.cue
TITLE "What About The...????"
PERFORMER "Conference Call"
REM GENRE "Free Jazz"
REM DATE "2010"
REM DISCNUMBER 2
REM TOTALDISCS 2
REM DISCID 4F0AD405
REM REPLAYGAIN_ALBUM_GAIN -6.89 dB
REM REPLAYGAIN_ALBUM_PEAK 0.966522
FILE "01 - Litmus.flac" WAVE
TRACK 01 AUDIO
TITLE "Litmus"
PERFORMER "Conference Call"
REM COMMENT "Recorded At Alchemia on 22 April 2007"
REM REPLAYGAIN_TRACK_GAIN -6.89 dB
REM REPLAYGAIN_TRACK_PEAK 0.966431
INDEX 01 00:00:00
FILE "02 - After Like (Part 3).flac" WAVE
TRACK 02 AUDIO
TITLE "After Like (Part 3)"
PERFORMER "Conference Call"
REM COMMENT "Recorded At Alchemia on 22 April 2007"
REM REPLAYGAIN_TRACK_GAIN -6.25 dB
REM REPLAYGAIN_TRACK_PEAK 0.966400
INDEX 01 00:00:00
TRACK 03 AUDIO
TITLE "Could This Be A Polka?"
PERFORMER "Conference Call"
REM COMMENT "Recorded At Alchemia on 22 April 2007"
REM REPLAYGAIN_TRACK_GAIN -8.35 dB
REM REPLAYGAIN_TRACK_PEAK 0.966522
INDEX 00 10:56:46
FILE "03 - Could This Be A Polka.flac" WAVE
INDEX 01 00:00:00
TRACK 04 AUDIO
TITLE "Translucent Tones (Gestalt In Three)"
PERFORMER "Conference Call"
REM COMMENT "Recorded At Alchemia on 22 April 2007"
REM REPLAYGAIN_TRACK_GAIN -0.82 dB
REM REPLAYGAIN_TRACK_PEAK 0.966187
INDEX 00 06:10:42
FILE "04 - Translucent Tones (Gestalt In Three).flac" WAVE
INDEX 01 00:00:00
FILE "05 - What About....flac" WAVE
TRACK 05 AUDIO
TITLE "What About...?"
PERFORMER "Conference Call"
REM COMMENT "Recorded At Alchemia on 22 April 2007"
REM REPLAYGAIN_TRACK_GAIN -6.83 dB
REM REPLAYGAIN_TRACK_PEAK 0.966400
INDEX 01 00:00:00
http://www.discogs.com/Conference-Call-What-About-The/release/2557568
другие релизы
По всем вопросам пишите личное сообщение пользователю M0p94ok.
18:46
211
Нет комментариев. Ваш будет первым!