Вы используете незарегистрированную версию компонента "Вкладки"!

Поиск

(Avant-Garde Jazz) [CD] Kaja Draksler & Susana Santos Silva - This Love - 2015, FLAC (tracks+.cue), lossless

(Avant-Garde Jazz) [CD] Kaja Draksler & Susana Santos Silva - This Love - 2015, FLAC (tracks+.cue), lossless
Треклист:
'
KAJA ' ' '
DRAKSLER ' ' '
THIS LOVE ' ' '
SUSANA ' ' '
SANTOS ' ' '
SILVA ' ' '
Жанр: Avant-Garde Jazz
Страна-производитель диска: Portugal
Год издания: Nov. 2015
Издатель (лейбл): Clean Feed
Номер по каталогу: CF353
Аудиокодек: FLAC (*.flac)
Тип рипа: tracks+.cue
Битрейт аудио: lossless
Продолжительность: 39:51
Источник (релизер): спасибо 6060842
Наличие сканов: нет
Треклист:
1. Laurie
2. This Love
3. Hymn To The Unknown
4. Foolish Little Something
5. Forgotten Lands
6. You Persevere
 
Лог создания рипа
X Lossless Decoder version 20151214 (149.1)
XLD extraction logfile from 2015-12-24 02:34:37 +0300
Kaja Draksler, Susana Santos Silva / This Love
Used drive : HL-DT-ST DVDRW GX30N (revision RP09)
Media type : Pressed CD
Ripper mode : XLD Secure Ripper
Disable audio cache : OK for the drive with a cache less than 1375KiB
Make use of C2 pointers : NO
Read offset correction : 6
Max retry count : 100
Gap status : Analyzed, Appended (except HTOA)
TOC of the extracted CD
Track | Start | Length | Start sector | End sector
---------------------------------------------------------
1 | 00:00:00 | 06:36:08 | 0 | 29707
2 | 06:36:08 | 06:03:18 | 29708 | 56950
3 | 12:39:26 | 07:34:68 | 56951 | 91068
4 | 20:14:19 | 05:40:51 | 91069 | 116619
5 | 25:54:70 | 06:16:40 | 116620 | 144859
6 | 32:11:35 | 07:55:00 | 144860 | 180484
AccurateRip Summary
Disc not found in AccurateRip DB.
All Tracks
Album gain : -0.87 dB
Peak : 0.996277
Statistics
Read error : 0
Jitter error (maybe fixed) : 0
Retry sector count : 0
Damaged sector count : 0
Track 01
Filename : /Users/anch/Music/Grabbed/Kaja Draksler, Susana Santos Silva/F 2015 - This Love/01 - Laurie.flac
Pre-gap length : 00:02:00
Track gain : -0.26 dB
Peak : 0.996277
CRC32 hash (test run) : 183F7785
CRC32 hash : 183F7785
CRC32 hash (skip zero) : B08FA120
AccurateRip v1 signature : 9C1A677D
AccurateRip v2 signature : 519BF440
->Track not present in AccurateRip database.
Statistics
Read error : 0
Jitter error (maybe fixed) : 0
Retry sector count : 0
Damaged sector count : 0
Track 02
Filename : /Users/anch/Music/Grabbed/Kaja Draksler, Susana Santos Silva/F 2015 - This Love/02 - This Love.flac
Pre-gap length : 00:03:74
Track gain : 0.85 dB
Peak : 0.979462
CRC32 hash (test run) : BFBEAEA7
CRC32 hash : BFBEAEA7
CRC32 hash (skip zero) : E1B69877
AccurateRip v1 signature : 84A368C6
AccurateRip v2 signature : 737D74C9
->Track not present in AccurateRip database.
Statistics
Read error : 0
Jitter error (maybe fixed) : 0
Retry sector count : 0
Damaged sector count : 0
Track 03
Filename : /Users/anch/Music/Grabbed/Kaja Draksler, Susana Santos Silva/F 2015 - This Love/03 - Hymn to the Unknown.flac
Pre-gap length : 00:02:73
Track gain : 0.80 dB
Peak : 0.996246
CRC32 hash (test run) : BBEB4FBC
CRC32 hash : BBEB4FBC
CRC32 hash (skip zero) : D5E66F6D
AccurateRip v1 signature : 6A95D1FE
AccurateRip v2 signature : A04BDACF
->Track not present in AccurateRip database.
Statistics
Read error : 0
Jitter error (maybe fixed) : 0
Retry sector count : 0
Damaged sector count : 0
Track 04
Filename : /Users/anch/Music/Grabbed/Kaja Draksler, Susana Santos Silva/F 2015 - This Love/04 - Foolish Little Something.flac
Pre-gap length : 00:01:74
Track gain : -4.57 dB
Peak : 0.996246
CRC32 hash (test run) : 7DCCA42A
CRC32 hash : 7DCCA42A
CRC32 hash (skip zero) : F0E9D4D7
AccurateRip v1 signature : A8719C07
AccurateRip v2 signature : C7B286D4
->Track not present in AccurateRip database.
Statistics
Read error : 0
Jitter error (maybe fixed) : 0
Retry sector count : 0
Damaged sector count : 0
Track 05
Filename : /Users/anch/Music/Grabbed/Kaja Draksler, Susana Santos Silva/F 2015 - This Love/05 - Forgotten Lands.flac
Pre-gap length : 00:03:74
Track gain : 0.79 dB
Peak : 0.726440
CRC32 hash (test run) : 61EC78C7
CRC32 hash : 61EC78C7
CRC32 hash (skip zero) : AF61737E
AccurateRip v1 signature : 7378BE6A
AccurateRip v2 signature : FC7A3C16
->Track not present in AccurateRip database.
Statistics
Read error : 0
Jitter error (maybe fixed) : 0
Retry sector count : 0
Damaged sector count : 0
Track 06
Filename : /Users/anch/Music/Grabbed/Kaja Draksler, Susana Santos Silva/F 2015 - This Love/06 - You Persevere.flac
Pre-gap length : 00:01:74
Track gain : 1.34 dB
Peak : 0.996216
CRC32 hash (test run) : 4A0FC921
CRC32 hash : 4A0FC921
CRC32 hash (skip zero) : D8F25C88
AccurateRip v1 signature : 3F044938
AccurateRip v2 signature : 93E8BB8B
->Track not present in AccurateRip database.
Statistics
Read error : 0
Jitter error (maybe fixed) : 0
Retry sector count : 0
Damaged sector count : 0
No errors occurred
End of status report
-----BEGIN XLD SIGNATURE-----
nDPlBQXDvV1AOi8vzlPHnQI1pcSxKWE_RH3i3ZAGY4U3hGMWDtwyTcb_7pDOWzrh4r4ypTFmUoVjVUwzaPMOy6U0v3ng0kdxNvBWFTG
-----END XLD SIGNATURE-----
 
Содержание индексной карты (.CUE)
TITLE "This Love"
PERFORMER "Kaja Draksler, Susana Santos Silva"
CATALOG 5609063003536
REM GENRE "Free Jazz"
REM DATE "2015"
REM DISCNUMBER 1
REM TOTALDISCS 1
REM DISCID 4F096606
REM REPLAYGAIN_ALBUM_GAIN -0.87 dB
REM REPLAYGAIN_ALBUM_PEAK 0.996277
FILE "01 - Laurie.flac" WAVE
TRACK 01 AUDIO
TITLE "Laurie"
PERFORMER "Kaja Draksler, Susana Santos Silva"
SONGWRITER "Kaja Draksler, Susana Santos Silva"
ISRC PTNF11509362
REM COMMENT "Recorded at Culturgest on the 22nd of March 2015"
REM REPLAYGAIN_TRACK_GAIN -0.26 dB
REM REPLAYGAIN_TRACK_PEAK 0.996277
INDEX 01 00:00:00
TRACK 02 AUDIO
TITLE "This Love"
PERFORMER "Kaja Draksler, Susana Santos Silva"
SONGWRITER "Kaja Draksler"
ISRC PTNF11509363
REM COMMENT "Recorded at Culturgest on the 22nd of March 2015"
REM REPLAYGAIN_TRACK_GAIN 0.85 dB
REM REPLAYGAIN_TRACK_PEAK 0.979462
INDEX 00 06:32:09
FILE "02 - This Love.flac" WAVE
INDEX 01 00:00:00
TRACK 03 AUDIO
TITLE "Hymn to the Unknown"
PERFORMER "Kaja Draksler, Susana Santos Silva"
SONGWRITER "Susana Santos Silva"
ISRC PTNF11509364
REM COMMENT "Recorded at Culturgest on the 22nd of March 2015"
REM REPLAYGAIN_TRACK_GAIN 0.80 dB
REM REPLAYGAIN_TRACK_PEAK 0.996246
INDEX 00 06:00:20
FILE "03 - Hymn to the Unknown.flac" WAVE
INDEX 01 00:00:00
TRACK 04 AUDIO
TITLE "Foolish Little Something"
PERFORMER "Kaja Draksler, Susana Santos Silva"
SONGWRITER "Susana Santos Silva"
ISRC PTNF11509365
REM COMMENT "Recorded at Culturgest on the 22nd of March 2015"
REM REPLAYGAIN_TRACK_GAIN -4.57 dB
REM REPLAYGAIN_TRACK_PEAK 0.996246
INDEX 00 07:32:69
FILE "04 - Foolish Little Something.flac" WAVE
INDEX 01 00:00:00
TRACK 05 AUDIO
TITLE "Forgotten Lands"
PERFORMER "Kaja Draksler, Susana Santos Silva"
SONGWRITER "Kaja Draksler"
ISRC PTNF11509366
REM COMMENT "Recorded at Culturgest on the 22nd of March 2015"
REM REPLAYGAIN_TRACK_GAIN 0.79 dB
REM REPLAYGAIN_TRACK_PEAK 0.726440
INDEX 00 05:36:52
FILE "05 - Forgotten Lands.flac" WAVE
INDEX 01 00:00:00
TRACK 06 AUDIO
TITLE "You Persevere"
PERFORMER "Kaja Draksler, Susana Santos Silva"
SONGWRITER "Kaja Draksler, Susana Santos Silva"
ISRC PTNF11509367
REM COMMENT "Recorded at Culturgest on the 22nd of March 2015"
REM REPLAYGAIN_TRACK_GAIN 1.34 dB
REM REPLAYGAIN_TRACK_PEAK 0.996216
INDEX 00 06:14:41
FILE "06 - You Persevere.flac" WAVE
INDEX 01 00:00:00
 
Об альбоме
This is by all means a recommended album, if only because we have a wonderful duo by two of Europe's most promising female musicians, Susana Santos Silva from Portugal on trumpet and Kaja Draksler from Slovenia on piano. The album is quite balanced in terms of compositions : two tracks by Draksler, two by Santos Silva and two joint compositions, organised in a circular way on the album, bookended by the improvisations and with Santos Silva's composition at the centre.
The opening track, "Laurie", is playful and fresh in the beginning, opened by the trumpet, with a strong entry by Draksler with some fast right hand runs, suggesting it as a kind of theme full of suprise and wonder, echoed immediately by the trumpet, then the intensity increases, driving the discovered material into denser and more hectic territory, without losing the playfulness, taking it to quieter moments with the occasional pause, then up again moving it into darker realms, with growling multiphonics and dramatic piano-playing.
"This Love" is a quiet ballad, lead by the piano, gentle and mysterious, reinforced by the warm tones of the flugelhorn, deepening the emotional power of the piece, that is at the same time open-ended and determined, a strange kind of paradox that gives the music a special quality, as if certainty and uncertainty are both at play.
"Hymn To The Unknown" is dark and brooding, a typical Santos Silva composition, on which the eery trumpet tones are supported by deep rumbling in the piano's interior, a piece that keeps evolving in tone and nature, with open spaces, small percussion by Draksler on the strings, evolving into lightness and quiet beauty.
"Foolish Little Something" is a playful unison high tempo piece with rhythmical complexities thrown in to increase the fun, with an atonal chaotic middle part, a nice collision of ideas, and quieting down towards the end.
"Forgotten Lands" I would call a typical Draksler composition, clever and disciplined and fresh, built around arpeggio chords for the left hand, and post-boppish phrases with the right, sweet and somewhat nostalgic, and again the trumpet's deep tones add a wonderful addition to the composition, making the piece both jubilant and solemn.
"You Persevere" ends the album with again an open duo improvisation, one which uses more extended techniques on both instruments, more adventurous in nature, and really strong, with Santos Silva demonstrating her incredible sonic skills on the trumpet, not to show off, but to create an uncanny and eery soundscape, supported by a piano that produces apparently endless sustained notes and percussive scraping.
I would suggest you listen for yourself. Both young artists have produced an album worth looking for, with music that is on the one hand balanced and controlled, and at the same time adventurous and exploring, and in doing so creating strong musical and emotional contrasts, often within the same composition of improvisation, taking the listener by surprise, but then surprises of the pleasant kind.
4,5/5 stars
(Stef, freejazzblog.org)
 
Состав

Kaja Draksler - piano
Susana Santos Silva - trumpet, flugelhorn
Кака любовь?! - Така любовь! ©
Вот так себе девушки это чувство представляют
По всем вопросам пишите личное сообщение пользователю M0p94ok.
18:45
187
Нет комментариев. Ваш будет первым!