Вы используете незарегистрированную версию компонента "Вкладки"!

Поиск

(avant-garde) [cd] Howard Riley - The Complete Short Stories 1998-2010, 6cd, FLAC (tracks+.cue), lossless

(avant-garde) [cd] Howard Riley - The Complete Short Stories 1998-2010, 6cd, FLAC (tracks+.cue), lossless
Треклист:
(avant-garde) [cd] Howard Riley - The Complete Short Stories 1998-2010, FLAC (tracks+.cue), lossless


Howard Riley - The Complete Short Stories 1998-2010

Жанр: avant-garde
Год выпуска: 1998-2010
Издатель (лейбл):2011, NoBusiness Records / NBCD 21-26
Формат: FLAC (tracks+.cue)
Битрейт аудио: lossless
Источник: what.cd
http://nobusinessrecords.com/NBCD21-26.php
 
01 - 1998-07-23 (NB CD 21)


01 - 1998-07-23 (NB CD 21)

1-1 The Opener 3:08
1-2 Eleven 2:31
1-3 Liason 4:25
1-4 Encore 7:25
1-5 Echoes 2:59
1-6 No Void 3:03
1-7 Stretch 2:56
1-8 Mythology 6:48
1-9 Branching 2:12
1-10 Hullabaloo 3:47
1-11 New Winter 2:18
1-12 Largo 2:42
1-13 Played In 2:25
1-14 Veracity 1:50
1-15 Only One 2:59
1-16 Headway 1:39

 
.log
X Lossless Decoder version 20141129a (148.2)
XLD extraction logfile from 2015-11-11 00:56:15 +0300
Howard Riley / Complete Short Stories 1998-2010
Used drive : HL-DT-ST DVDRW GX30N (revision RP09)
Media type : Pressed CD
Ripper mode : XLD Secure Ripper
Disable audio cache : OK for the drive with a cache less than 1375KiB
Make use of C2 pointers : NO
Read offset correction : 6
Max retry count : 100
Gap status : Analyzed, Appended (except HTOA)
TOC of the extracted CD
Track | Start | Length | Start sector | End sector
---------------------------------------------------------
1 | 00:00:02 | 03:08:32 | 2 | 14133
2 | 03:08:34 | 02:30:52 | 14134 | 25435
3 | 05:39:11 | 04:25:34 | 25436 | 45344
4 | 10:04:45 | 07:25:31 | 45345 | 78750
5 | 17:30:01 | 02:59:04 | 78751 | 92179
6 | 20:29:05 | 03:02:74 | 92180 | 105903
7 | 23:32:04 | 02:56:36 | 105904 | 119139
8 | 26:28:40 | 06:48:27 | 119140 | 149766
9 | 33:16:67 | 02:12:04 | 149767 | 159670
10 | 35:28:71 | 03:47:29 | 159671 | 176724
11 | 39:16:25 | 02:18:37 | 176725 | 187111
12 | 41:34:62 | 02:42:25 | 187112 | 199286
13 | 44:17:12 | 02:24:74 | 199287 | 210160
14 | 46:42:11 | 01:50:30 | 210161 | 218440
15 | 48:32:41 | 02:59:40 | 218441 | 231905
16 | 51:32:06 | 01:39:28 | 231906 | 239358
AccurateRip Summary (DiscID: 00226209-0196a704-d40c7710)
Track 01 : OK (v2, confidence 2/2)
Track 02 : OK (v2, confidence 2/2)
Track 03 : OK (v2, confidence 2/2)
Track 04 : OK (v2, confidence 2/2)
Track 05 : OK (v2, confidence 2/2)
Track 06 : OK (v2, confidence 2/2)
Track 07 : OK (v2, confidence 2/2)
Track 08 : OK (v2, confidence 2/2)
Track 09 : OK (v2, confidence 2/2)
Track 10 : OK (v2, confidence 2/2)
Track 11 : OK (v2, confidence 2/2)
Track 12 : OK (v2, confidence 2/2)
Track 13 : OK (v2, confidence 2/2)
Track 14 : OK (v2, confidence 2/2)
Track 15 : OK (v2, confidence 2/2)
Track 16 : OK (v2, confidence 2/2)
->All tracks accurately ripped.
All Tracks
Album gain : -1.15 dB
Peak : 0.952606
Statistics
Read error : 0
Jitter error (maybe fixed) : 0
Retry sector count : 0
Damaged sector count : 0
Track 01
Filename : /Users/anch/Music/Grabbed/Howard Riley/F 2011 - Complete Short Stories 1998-2010/01/01 - The Opener.flac
Pre-gap length : 00:02:02
Track gain : -2.21 dB
Peak : 0.952606
CRC32 hash (test run) : BE2A5FF7
CRC32 hash : BE2A5FF7
CRC32 hash (skip zero) : C1A56F56
AccurateRip v1 signature : 6564FF6B
AccurateRip v2 signature : C613179F
->Accurately ripped (v2, confidence 2/2)
Statistics
Read error : 0
Jitter error (maybe fixed) : 0
Retry sector count : 0
Damaged sector count : 0
Track 02
Filename : /Users/anch/Music/Grabbed/Howard Riley/F 2011 - Complete Short Stories 1998-2010/01/02 - Eleven.flac
Pre-gap length : 00:03:00
Track gain : -1.65 dB
Peak : 0.813171
CRC32 hash (test run) : E1324B38
CRC32 hash : E1324B38
CRC32 hash (skip zero) : 3D7A4A58
AccurateRip v1 signature : 13D60CAF
AccurateRip v2 signature : 30961875
->Accurately ripped (v2, confidence 2/2)
Statistics
Read error : 0
Jitter error (maybe fixed) : 0
Retry sector count : 0
Damaged sector count : 0
Track 03
Filename : /Users/anch/Music/Grabbed/Howard Riley/F 2011 - Complete Short Stories 1998-2010/01/03 - Liason.flac
Pre-gap length : 00:03:00
Track gain : 0.32 dB
Peak : 0.773071
CRC32 hash (test run) : E1A35BA5
CRC32 hash : E1A35BA5
CRC32 hash (skip zero) : E8C401EF
AccurateRip v1 signature : BB94DBDD
AccurateRip v2 signature : 044C1826
->Accurately ripped (v2, confidence 2/2)
Statistics
Read error : 0
Jitter error (maybe fixed) : 0
Retry sector count : 0
Damaged sector count : 0
Track 04
Filename : /Users/anch/Music/Grabbed/Howard Riley/F 2011 - Complete Short Stories 1998-2010/01/04 - Encore.flac
Pre-gap length : 00:03:00
Track gain : -0.65 dB
Peak : 0.821564
CRC32 hash (test run) : 80063B7C
CRC32 hash : 80063B7C
CRC32 hash (skip zero) : 0A0CF006
AccurateRip v1 signature : B87A2882
AccurateRip v2 signature : 2CCB53C9
->Accurately ripped (v2, confidence 2/2)
Statistics
Read error : 0
Jitter error (maybe fixed) : 0
Retry sector count : 0
Damaged sector count : 0
Track 05
Filename : /Users/anch/Music/Grabbed/Howard Riley/F 2011 - Complete Short Stories 1998-2010/01/05 - Echoes.flac
Pre-gap length : 00:03:00
Track gain : 0.12 dB
Peak : 0.781830
CRC32 hash (test run) : 3C5ECB93
CRC32 hash : 3C5ECB93
CRC32 hash (skip zero) : 94D25942
AccurateRip v1 signature : 030EFA94
AccurateRip v2 signature : 43C3799B
->Accurately ripped (v2, confidence 2/2)
Statistics
Read error : 0
Jitter error (maybe fixed) : 0
Retry sector count : 0
Damaged sector count : 0
Track 06
Filename : /Users/anch/Music/Grabbed/Howard Riley/F 2011 - Complete Short Stories 1998-2010/01/06 - No Void.flac
Pre-gap length : 00:03:00
Track gain : -2.24 dB
Peak : 0.873047
CRC32 hash (test run) : AE5E1D47
CRC32 hash : AE5E1D47
CRC32 hash (skip zero) : 4F9A9E6E
AccurateRip v1 signature : 9E4BA8BE
AccurateRip v2 signature : 1BBD9479
->Accurately ripped (v2, confidence 2/2)
Statistics
Read error : 0
Jitter error (maybe fixed) : 0
Retry sector count : 0
Damaged sector count : 0
Track 07
Filename : /Users/anch/Music/Grabbed/Howard Riley/F 2011 - Complete Short Stories 1998-2010/01/07 - Stretch.flac
Pre-gap length : 00:03:00
Track gain : -1.60 dB
Peak : 0.854767
CRC32 hash (test run) : 2A91B837
CRC32 hash : 2A91B837
CRC32 hash (skip zero) : 509B572C
AccurateRip v1 signature : D9D83E65
AccurateRip v2 signature : AF69E8E0
->Accurately ripped (v2, confidence 2/2)
Statistics
Read error : 0
Jitter error (maybe fixed) : 0
Retry sector count : 0
Damaged sector count : 0
Track 08
Filename : /Users/anch/Music/Grabbed/Howard Riley/F 2011 - Complete Short Stories 1998-2010/01/08 - Mythology.flac
Pre-gap length : 00:03:00
Track gain : -0.58 dB
Peak : 0.783142
CRC32 hash (test run) : 6721FE66
CRC32 hash : 6721FE66
CRC32 hash (skip zero) : C5758154
AccurateRip v1 signature : 1322E8EF
AccurateRip v2 signature : 670C6571
->Accurately ripped (v2, confidence 2/2)
Statistics
Read error : 0
Jitter error (maybe fixed) : 0
Retry sector count : 0
Damaged sector count : 0
Track 09
Filename : /Users/anch/Music/Grabbed/Howard Riley/F 2011 - Complete Short Stories 1998-2010/01/09 - Branching.flac
Pre-gap length : 00:03:00
Track gain : -1.98 dB
Peak : 0.747650
CRC32 hash (test run) : 640CD2C5
CRC32 hash : 640CD2C5
CRC32 hash (skip zero) : B7B3230E
AccurateRip v1 signature : 2534117B
AccurateRip v2 signature : 7FBBF82B
->Accurately ripped (v2, confidence 2/2)
Statistics
Read error : 0
Jitter error (maybe fixed) : 0
Retry sector count : 0
Damaged sector count : 0
Track 10
Filename : /Users/anch/Music/Grabbed/Howard Riley/F 2011 - Complete Short Stories 1998-2010/01/10 - Hullabaloo.flac
Pre-gap length : 00:03:00
Track gain : -1.86 dB
Peak : 0.910736
CRC32 hash (test run) : F9118A80
CRC32 hash : F9118A80
CRC32 hash (skip zero) : E6F28C92
AccurateRip v1 signature : 803C374C
AccurateRip v2 signature : CC0CAB15
->Accurately ripped (v2, confidence 2/2)
Statistics
Read error : 0
Jitter error (maybe fixed) : 0
Retry sector count : 0
Damaged sector count : 0
Track 11
Filename : /Users/anch/Music/Grabbed/Howard Riley/F 2011 - Complete Short Stories 1998-2010/01/11 - New Winter.flac
Pre-gap length : 00:03:00
Track gain : -0.50 dB
Peak : 0.742767
CRC32 hash (test run) : B1FDE5CA
CRC32 hash : B1FDE5CA
CRC32 hash (skip zero) : 3CA57A42
AccurateRip v1 signature : 035A5980
AccurateRip v2 signature : 556479CB
->Accurately ripped (v2, confidence 2/2)
Statistics
Read error : 0
Jitter error (maybe fixed) : 0
Retry sector count : 0
Damaged sector count : 0
Track 12
Filename : /Users/anch/Music/Grabbed/Howard Riley/F 2011 - Complete Short Stories 1998-2010/01/12 - Largo.flac
Pre-gap length : 00:03:00
Track gain : 0.48 dB
Peak : 0.622131
CRC32 hash (test run) : 23EDCE63
CRC32 hash : 23EDCE63
CRC32 hash (skip zero) : 1E8CDD3E
AccurateRip v1 signature : 3B2CDD16
AccurateRip v2 signature : BFBF7DA5
->Accurately ripped (v2, confidence 2/2)
Statistics
Read error : 0
Jitter error (maybe fixed) : 0
Retry sector count : 0
Damaged sector count : 0
Track 13
Filename : /Users/anch/Music/Grabbed/Howard Riley/F 2011 - Complete Short Stories 1998-2010/01/13 - Played In.flac
Pre-gap length : 00:03:00
Track gain : -1.11 dB
Peak : 0.816528
CRC32 hash (test run) : 0795DC23
CRC32 hash : 0795DC23
CRC32 hash (skip zero) : 48F2F5A7
AccurateRip v1 signature : 16CC40F1
AccurateRip v2 signature : 27E23625
->Accurately ripped (v2, confidence 2/2)
Statistics
Read error : 0
Jitter error (maybe fixed) : 0
Retry sector count : 0
Damaged sector count : 0
Track 14
Filename : /Users/anch/Music/Grabbed/Howard Riley/F 2011 - Complete Short Stories 1998-2010/01/14 - Veracity.flac
Pre-gap length : 00:03:00
Track gain : -0.56 dB
Peak : 0.711487
CRC32 hash (test run) : 8E763013
CRC32 hash : 8E763013
CRC32 hash (skip zero) : 816B5FA8
AccurateRip v1 signature : 0AEC12A5
AccurateRip v2 signature : 4D06CCC8
->Accurately ripped (v2, confidence 2/2)
Statistics
Read error : 0
Jitter error (maybe fixed) : 0
Retry sector count : 0
Damaged sector count : 0
Track 15
Filename : /Users/anch/Music/Grabbed/Howard Riley/F 2011 - Complete Short Stories 1998-2010/01/15 - Only One.flac
Pre-gap length : 00:03:00
Track gain : -0.29 dB
Peak : 0.653259
CRC32 hash (test run) : CC09986B
CRC32 hash : CC09986B
CRC32 hash (skip zero) : B2246E84
AccurateRip v1 signature : 0CEEB086
AccurateRip v2 signature : 95EEDBCE
->Accurately ripped (v2, confidence 2/2)
Statistics
Read error : 0
Jitter error (maybe fixed) : 0
Retry sector count : 0
Damaged sector count : 0
Track 16
Filename : /Users/anch/Music/Grabbed/Howard Riley/F 2011 - Complete Short Stories 1998-2010/01/16 - Headway.flac
Pre-gap length : 00:03:00
Track gain : -2.65 dB
Peak : 0.791626
CRC32 hash (test run) : 837EE18B
CRC32 hash : 837EE18B
CRC32 hash (skip zero) : 6A42096F
AccurateRip v1 signature : F4ECCD52
AccurateRip v2 signature : C33ACD32
->Accurately ripped (v2, confidence 2/2)
Statistics
Read error : 0
Jitter error (maybe fixed) : 0
Retry sector count : 0
Damaged sector count : 0
No errors occurred
End of status report
-----BEGIN XLD SIGNATURE-----
dIs9th9F5JDE_7o_O7QpQ5d3lS4vTxWh8is9YVNWnLoUhsMAbRnFjIUX1lL0F91_09coBzewQ36rIDkmJsFhUL.rHDZO4mzRrxF.FEi
-----END XLD SIGNATURE-----
 
.cue
TITLE "The Complete Short Stories 1998-2010, 1998-07-23 (NB CD 21)"
PERFORMER "Howard Riley"
REM GENRE "Avant-Garde"
REM DATE "2011"
REM DISCNUMBER 1
REM TOTALDISCS 6
REM DISCID D40C7710
REM REPLAYGAIN_ALBUM_GAIN -1.15 dB
REM REPLAYGAIN_ALBUM_PEAK 0.952606
FILE "01 - The Opener.flac" WAVE
TRACK 01 AUDIO
TITLE "The Opener"
PERFORMER "Howard Riley"
SONGWRITER "Howard Riley"
REM COMMENT "Recorded on 23rd July 1998 "
REM REPLAYGAIN_TRACK_GAIN -2.21 dB
REM REPLAYGAIN_TRACK_PEAK 0.952606
PREGAP 00:00:02
INDEX 01 00:00:00
TRACK 02 AUDIO
TITLE "Eleven"
PERFORMER "Howard Riley"
SONGWRITER "Howard Riley"
REM COMMENT "Recorded on 23rd July 1998 "
REM REPLAYGAIN_TRACK_GAIN -1.65 dB
REM REPLAYGAIN_TRACK_PEAK 0.813171
INDEX 00 03:05:32
FILE "02 - Eleven.flac" WAVE
INDEX 01 00:00:00
TRACK 03 AUDIO
TITLE "Liason"
PERFORMER "Howard Riley"
SONGWRITER "Howard Riley"
REM COMMENT "Recorded on 23rd July 1998 "
REM REPLAYGAIN_TRACK_GAIN 0.32 dB
REM REPLAYGAIN_TRACK_PEAK 0.773071
INDEX 00 02:27:52
FILE "03 - Liason.flac" WAVE
INDEX 01 00:00:00
TRACK 04 AUDIO
TITLE "Encore"
PERFORMER "Howard Riley"
SONGWRITER "Howard Riley"
REM COMMENT "Recorded on 23rd July 1998 "
REM REPLAYGAIN_TRACK_GAIN -0.65 dB
REM REPLAYGAIN_TRACK_PEAK 0.821564
INDEX 00 04:22:34
FILE "04 - Encore.flac" WAVE
INDEX 01 00:00:00
TRACK 05 AUDIO
TITLE "Echoes"
PERFORMER "Howard Riley"
SONGWRITER "Howard Riley"
REM COMMENT "Recorded on 23rd July 1998 "
REM REPLAYGAIN_TRACK_GAIN 0.12 dB
REM REPLAYGAIN_TRACK_PEAK 0.781830
INDEX 00 07:22:31
FILE "05 - Echoes.flac" WAVE
INDEX 01 00:00:00
TRACK 06 AUDIO
TITLE "No Void"
PERFORMER "Howard Riley"
SONGWRITER "Howard Riley"
REM COMMENT "Recorded on 23rd July 1998 "
REM REPLAYGAIN_TRACK_GAIN -2.24 dB
REM REPLAYGAIN_TRACK_PEAK 0.873047
INDEX 00 02:56:04
FILE "06 - No Void.flac" WAVE
INDEX 01 00:00:00
TRACK 07 AUDIO
TITLE "Stretch"
PERFORMER "Howard Riley"
SONGWRITER "Howard Riley"
REM COMMENT "Recorded on 23rd July 1998 "
REM REPLAYGAIN_TRACK_GAIN -1.60 dB
REM REPLAYGAIN_TRACK_PEAK 0.854767
INDEX 00 02:59:74
FILE "07 - Stretch.flac" WAVE
INDEX 01 00:00:00
TRACK 08 AUDIO
TITLE "Mythology"
PERFORMER "Howard Riley"
SONGWRITER "Howard Riley"
REM COMMENT "Recorded on 23rd July 1998 "
REM REPLAYGAIN_TRACK_GAIN -0.58 dB
REM REPLAYGAIN_TRACK_PEAK 0.783142
INDEX 00 02:53:36
FILE "08 - Mythology.flac" WAVE
INDEX 01 00:00:00
TRACK 09 AUDIO
TITLE "Branching"
PERFORMER "Howard Riley"
SONGWRITER "Howard Riley"
REM COMMENT "Recorded on 23rd July 1998 "
REM REPLAYGAIN_TRACK_GAIN -1.98 dB
REM REPLAYGAIN_TRACK_PEAK 0.747650
INDEX 00 06:45:27
FILE "09 - Branching.flac" WAVE
INDEX 01 00:00:00
TRACK 10 AUDIO
TITLE "Hullabaloo"
PERFORMER "Howard Riley"
SONGWRITER "Howard Riley"
REM COMMENT "Recorded on 23rd July 1998 "
REM REPLAYGAIN_TRACK_GAIN -1.86 dB
REM REPLAYGAIN_TRACK_PEAK 0.910736
INDEX 00 02:09:04
FILE "10 - Hullabaloo.flac" WAVE
INDEX 01 00:00:00
TRACK 11 AUDIO
TITLE "New Winter"
PERFORMER "Howard Riley"
SONGWRITER "Howard Riley"
REM COMMENT "Recorded on 23rd July 1998 "
REM REPLAYGAIN_TRACK_GAIN -0.50 dB
REM REPLAYGAIN_TRACK_PEAK 0.742767
INDEX 00 03:44:29
FILE "11 - New Winter.flac" WAVE
INDEX 01 00:00:00
TRACK 12 AUDIO
TITLE "Largo"
PERFORMER "Howard Riley"
SONGWRITER "Howard Riley"
REM COMMENT "Recorded on 23rd July 1998 "
REM REPLAYGAIN_TRACK_GAIN 0.48 dB
REM REPLAYGAIN_TRACK_PEAK 0.622131
INDEX 00 02:15:37
FILE "12 - Largo.flac" WAVE
INDEX 01 00:00:00
TRACK 13 AUDIO
TITLE "Played In"
PERFORMER "Howard Riley"
SONGWRITER "Howard Riley"
REM COMMENT "Recorded on 23rd July 1998 "
REM REPLAYGAIN_TRACK_GAIN -1.11 dB
REM REPLAYGAIN_TRACK_PEAK 0.816528
INDEX 00 02:39:25
FILE "13 - Played In.flac" WAVE
INDEX 01 00:00:00
TRACK 14 AUDIO
TITLE "Veracity"
PERFORMER "Howard Riley"
SONGWRITER "Howard Riley"
REM COMMENT "Recorded on 23rd July 1998 "
REM REPLAYGAIN_TRACK_GAIN -0.56 dB
REM REPLAYGAIN_TRACK_PEAK 0.711487
INDEX 00 02:21:74
FILE "14 - Veracity.flac" WAVE
INDEX 01 00:00:00
TRACK 15 AUDIO
TITLE "Only One"
PERFORMER "Howard Riley"
SONGWRITER "Howard Riley"
REM COMMENT "Recorded on 23rd July 1998 "
REM REPLAYGAIN_TRACK_GAIN -0.29 dB
REM REPLAYGAIN_TRACK_PEAK 0.653259
INDEX 00 01:47:30
FILE "15 - Only One.flac" WAVE
INDEX 01 00:00:00
TRACK 16 AUDIO
TITLE "Headway"
PERFORMER "Howard Riley"
SONGWRITER "Howard Riley"
REM COMMENT "Recorded on 23rd July 1998 "
REM REPLAYGAIN_TRACK_GAIN -2.65 dB
REM REPLAYGAIN_TRACK_PEAK 0.791626
INDEX 00 02:56:40
FILE "16 - Headway.flac" WAVE
INDEX 01 00:00:00
 
02 - 1999-04-11 (NB CD 22)


02 - 1999-04-11 (NB CD 22)

2-1 Short Stories 3:21
2-2 Dedication 5:12
2-3 Sun One 3:50
2-4 One More Time 2:53
2-5 Axis 3:19
2-6 The Furthest Point 3:47
2-7 After Which 4:49
2-8 Air Time 2:14
2-9 Alternatives 2:10
2-10 Regeneration 4:21
2-11 For Jaki 3:51
2-12 To Be Sure 2:40
2-13 Sun Two 3:05
2-14 Sincerity 3:45
2-15 Of Now 3:22

 
.log
X Lossless Decoder version 20141129a (148.2)
XLD extraction logfile from 2015-11-11 01:42:29 +0300
Howard Riley / Complete Short Stories 1998-2010
Used drive : HL-DT-ST DVDRW GX30N (revision RP09)
Media type : Pressed CD
Ripper mode : XLD Secure Ripper
Disable audio cache : OK for the drive with a cache less than 1375KiB
Make use of C2 pointers : NO
Read offset correction : 6
Max retry count : 100
Gap status : Analyzed, Appended (except HTOA)
TOC of the extracted CD
Track | Start | Length | Start sector | End sector
---------------------------------------------------------
1 | 00:00:02 | 03:21:03 | 2 | 15079
2 | 03:21:05 | 05:12:04 | 15080 | 38483
3 | 08:33:09 | 03:50:42 | 38484 | 55775
4 | 12:23:51 | 02:52:66 | 55776 | 68741
5 | 15:16:42 | 03:18:52 | 68742 | 83643
6 | 18:35:19 | 03:46:67 | 83644 | 100660
7 | 22:22:11 | 04:48:49 | 100661 | 122309
8 | 27:10:60 | 02:14:36 | 122310 | 132395
9 | 29:25:21 | 02:10:37 | 132396 | 142182
10 | 31:35:58 | 04:20:61 | 142183 | 161743
11 | 35:56:44 | 03:50:50 | 161744 | 179043
12 | 39:47:19 | 02:39:44 | 179044 | 191012
13 | 42:26:63 | 03:05:08 | 191013 | 204895
14 | 45:31:71 | 03:45:43 | 204896 | 221813
15 | 49:17:39 | 03:22:45 | 221814 | 237008
AccurateRip Summary (DiscID: 001dd3ee-014e5044-e50c580f)
Track 01 : OK (v2, confidence 1/1)
Track 02 : OK (v2, confidence 1/1)
Track 03 : OK (v2, confidence 1/1)
Track 04 : OK (v2, confidence 1/1)
Track 05 : OK (v2, confidence 1/1)
Track 06 : OK (v2, confidence 1/1)
Track 07 : OK (v2, confidence 1/1)
Track 08 : OK (v2, confidence 1/1)
Track 09 : OK (v2, confidence 1/1)
Track 10 : OK (v2, confidence 1/1)
Track 11 : OK (v2, confidence 1/1)
Track 12 : OK (v2, confidence 1/1)
Track 13 : OK (v2, confidence 1/1)
Track 14 : OK (v2, confidence 1/1)
Track 15 : OK (v2, confidence 1/1)
->All tracks accurately ripped.
All Tracks
Album gain : 0.11 dB
Peak : 0.809937
Statistics
Read error : 0
Jitter error (maybe fixed) : 0
Retry sector count : 0
Damaged sector count : 0
Track 01
Filename : /Users/anch/Music/Grabbed/Howard Riley/F 2011 - Complete Short Stories 1998-2010/02/01 - Short Stories.flac
Pre-gap length : 00:02:02
Track gain : 0.36 dB
Peak : 0.619751
CRC32 hash (test run) : 3FE64085
CRC32 hash : 3FE64085
CRC32 hash (skip zero) : EA4DB8EF
AccurateRip v1 signature : 30E8C59C
AccurateRip v2 signature : CFA6D43F
->Accurately ripped (v2, confidence 1/1)
Statistics
Read error : 0
Jitter error (maybe fixed) : 0
Retry sector count : 0
Damaged sector count : 0
Track 02
Filename : /Users/anch/Music/Grabbed/Howard Riley/F 2011 - Complete Short Stories 1998-2010/02/02 - Dedication.flac
Pre-gap length : 00:03:00
Track gain : 0.19 dB
Peak : 0.720093
CRC32 hash (test run) : D16076CD
CRC32 hash : D16076CD
CRC32 hash (skip zero) : 47CDBA79
AccurateRip v1 signature : 98FD9447
AccurateRip v2 signature : 693A038D
->Accurately ripped (v2, confidence 1/1)
Statistics
Read error : 0
Jitter error (maybe fixed) : 0
Retry sector count : 0
Damaged sector count : 0
Track 03
Filename : /Users/anch/Music/Grabbed/Howard Riley/F 2011 - Complete Short Stories 1998-2010/02/03 - Sun One.flac
Pre-gap length : 00:03:00
Track gain : -0.14 dB
Peak : 0.597473
CRC32 hash (test run) : A76022C4
CRC32 hash : A76022C4
CRC32 hash (skip zero) : 3A6C1772
AccurateRip v1 signature : 1B042CA3
AccurateRip v2 signature : 4D20C8A6
->Accurately ripped (v2, confidence 1/1)
Statistics
Read error : 0
Jitter error (maybe fixed) : 0
Retry sector count : 0
Damaged sector count : 0
Track 04
Filename : /Users/anch/Music/Grabbed/Howard Riley/F 2011 - Complete Short Stories 1998-2010/02/04 - One More Time.flac
Pre-gap length : 00:03:00
Track gain : 0.20 dB
Peak : 0.621277
CRC32 hash (test run) : 6B46E989
CRC32 hash : 6B46E989
CRC32 hash (skip zero) : 19420E57
AccurateRip v1 signature : 962403EC
AccurateRip v2 signature : 1156CEE9
->Accurately ripped (v2, confidence 1/1)
Statistics
Read error : 0
Jitter error (maybe fixed) : 0
Retry sector count : 0
Damaged sector count : 0
Track 05
Filename : /Users/anch/Music/Grabbed/Howard Riley/F 2011 - Complete Short Stories 1998-2010/02/05 - Axis.flac
Pre-gap length : 00:03:00
Track gain : -0.27 dB
Peak : 0.809937
CRC32 hash (test run) : F13467EF
CRC32 hash : F13467EF
CRC32 hash (skip zero) : F0F239DA
AccurateRip v1 signature : 011A0739
AccurateRip v2 signature : 6F8281E8
->Accurately ripped (v2, confidence 1/1)
Statistics
Read error : 0
Jitter error (maybe fixed) : 0
Retry sector count : 0
Damaged sector count : 0
Track 06
Filename : /Users/anch/Music/Grabbed/Howard Riley/F 2011 - Complete Short Stories 1998-2010/02/06 - The Furthest Point.flac
Pre-gap length : 00:03:00
Track gain : 1.81 dB
Peak : 0.573364
CRC32 hash (test run) : 8CDE66C8
CRC32 hash : 8CDE66C8
CRC32 hash (skip zero) : 180AB244
AccurateRip v1 signature : 54131B10
AccurateRip v2 signature : 69562D8B
->Accurately ripped (v2, confidence 1/1)
Statistics
Read error : 0
Jitter error (maybe fixed) : 0
Retry sector count : 0
Damaged sector count : 0
Track 07
Filename : /Users/anch/Music/Grabbed/Howard Riley/F 2011 - Complete Short Stories 1998-2010/02/07 - Aftre Which.flac
Pre-gap length : 00:03:00
Track gain : 0.36 dB
Peak : 0.725525
CRC32 hash (test run) : E55A2D6D
CRC32 hash : E55A2D6D
CRC32 hash (skip zero) : 73BE2317
AccurateRip v1 signature : 294A3F43
AccurateRip v2 signature : CE426E6C
->Accurately ripped (v2, confidence 1/1)
Statistics
Read error : 0
Jitter error (maybe fixed) : 0
Retry sector count : 0
Damaged sector count : 0
Track 08
Filename : /Users/anch/Music/Grabbed/Howard Riley/F 2011 - Complete Short Stories 1998-2010/02/08 - Air Time.flac
Pre-gap length : 00:03:00
Track gain : -0.11 dB
Peak : 0.661377
CRC32 hash (test run) : 8A63C451
CRC32 hash : 8A63C451
CRC32 hash (skip zero) : 7C937729
AccurateRip v1 signature : 07862F81
AccurateRip v2 signature : CAED86E6
->Accurately ripped (v2, confidence 1/1)
Statistics
Read error : 0
Jitter error (maybe fixed) : 0
Retry sector count : 0
Damaged sector count : 0
Track 09
Filename : /Users/anch/Music/Grabbed/Howard Riley/F 2011 - Complete Short Stories 1998-2010/02/09 - Alternatives.flac
Pre-gap length : 00:03:00
Track gain : -0.68 dB
Peak : 0.665253
CRC32 hash (test run) : 966AECEC
CRC32 hash : 966AECEC
CRC32 hash (skip zero) : 5922D7BC
AccurateRip v1 signature : EE65510A
AccurateRip v2 signature : 5549455F
->Accurately ripped (v2, confidence 1/1)
Statistics
Read error : 0
Jitter error (maybe fixed) : 0
Retry sector count : 0
Damaged sector count : 0
Track 10
Filename : /Users/anch/Music/Grabbed/Howard Riley/F 2011 - Complete Short Stories 1998-2010/02/10 - Regeneration.flac
Pre-gap length : 00:03:00
Track gain : 1.08 dB
Peak : 0.702972
CRC32 hash (test run) : B2EA223F
CRC32 hash : B2EA223F
CRC32 hash (skip zero) : 80A94A81
AccurateRip v1 signature : ED42E0E0
AccurateRip v2 signature : 21942C02
->Accurately ripped (v2, confidence 1/1)
Statistics
Read error : 0
Jitter error (maybe fixed) : 0
Retry sector count : 0
Damaged sector count : 0
Track 11
Filename : /Users/anch/Music/Grabbed/Howard Riley/F 2011 - Complete Short Stories 1998-2010/02/11 - For Jaki.flac
Pre-gap length : 00:03:00
Track gain : -0.68 dB
Peak : 0.679657
CRC32 hash (test run) : 07953D7C
CRC32 hash : 07953D7C
CRC32 hash (skip zero) : 384B2C1A
AccurateRip v1 signature : 2C09C821
AccurateRip v2 signature : 0BD0A7E4
->Accurately ripped (v2, confidence 1/1)
Statistics
Read error : 0
Jitter error (maybe fixed) : 0
Retry sector count : 0
Damaged sector count : 0
Track 12
Filename : /Users/anch/Music/Grabbed/Howard Riley/F 2011 - Complete Short Stories 1998-2010/02/12 - To Be Sure.flac
Pre-gap length : 00:03:00
Track gain : -0.66 dB
Peak : 0.639374
CRC32 hash (test run) : 2A14C468
CRC32 hash : 2A14C468
CRC32 hash (skip zero) : 2ECE004B
AccurateRip v1 signature : 330A7249
AccurateRip v2 signature : 963EDED8
->Accurately ripped (v2, confidence 1/1)
Statistics
Read error : 0
Jitter error (maybe fixed) : 0
Retry sector count : 0
Damaged sector count : 0
Track 13
Filename : /Users/anch/Music/Grabbed/Howard Riley/F 2011 - Complete Short Stories 1998-2010/02/13 - Sun Two.flac
Pre-gap length : 00:03:00
Track gain : -0.37 dB
Peak : 0.649841
CRC32 hash (test run) : 13100EC4
CRC32 hash : 13100EC4
CRC32 hash (skip zero) : 8FBE2238
AccurateRip v1 signature : 6B75C9F0
AccurateRip v2 signature : D8018AFF
->Accurately ripped (v2, confidence 1/1)
Statistics
Read error : 0
Jitter error (maybe fixed) : 0
Retry sector count : 0
Damaged sector count : 0
Track 14
Filename : /Users/anch/Music/Grabbed/Howard Riley/F 2011 - Complete Short Stories 1998-2010/02/14 - Sincerity.flac
Pre-gap length : 00:03:00
Track gain : 0.17 dB
Peak : 0.636230
CRC32 hash (test run) : F5CA0296
CRC32 hash : F5CA0296
CRC32 hash (skip zero) : AE318A1F
AccurateRip v1 signature : B22E2E0B
AccurateRip v2 signature : 1B4671B9
->Accurately ripped (v2, confidence 1/1)
Statistics
Read error : 0
Jitter error (maybe fixed) : 0
Retry sector count : 0
Damaged sector count : 0
Track 15
Filename : /Users/anch/Music/Grabbed/Howard Riley/F 2011 - Complete Short Stories 1998-2010/02/15 - Of Now.flac
Pre-gap length : 00:03:00
Track gain : 1.44 dB
Peak : 0.497131
CRC32 hash (test run) : 0A5E4EA0
CRC32 hash : 0A5E4EA0
CRC32 hash (skip zero) : F5A53F9A
AccurateRip v1 signature : 10670E48
AccurateRip v2 signature : 7D596051
->Accurately ripped (v2, confidence 1/1)
Statistics
Read error : 0
Jitter error (maybe fixed) : 0
Retry sector count : 0
Damaged sector count : 0
No errors occurred
End of status report
-----BEGIN XLD SIGNATURE-----
HFdTgw15aul02jVPJkYXrDJW8caSzRohI3URR2LFyEap0E1wtVvpqWD6Oa857ORPAbC9VLbJ1xPzozOCb9NAxwvxpaKVr3ZEBqjYww0
-----END XLD SIGNATURE-----
 
.cue
TITLE "The Complete Short Stories 1998-2010, 1999-04-11 (NB CD 22)"
PERFORMER "Howard Riley"
REM GENRE "Avant-Garde"
REM DATE "2011"
REM DISCNUMBER 2
REM TOTALDISCS 6
REM DISCID E50C580F
REM REPLAYGAIN_ALBUM_GAIN 0.11 dB
REM REPLAYGAIN_ALBUM_PEAK 0.809937
FILE "01 - Short Stories.flac" WAVE
TRACK 01 AUDIO
TITLE "Short Stories"
PERFORMER "Howard Riley"
SONGWRITER "Howard Riley"
REM COMMENT "Recorded on 11th April, 1999"
REM REPLAYGAIN_TRACK_GAIN 0.36 dB
REM REPLAYGAIN_TRACK_PEAK 0.619751
PREGAP 00:00:02
INDEX 01 00:00:00
TRACK 02 AUDIO
TITLE "Dedication"
PERFORMER "Howard Riley"
SONGWRITER "Howard Riley"
REM COMMENT "Recorded on 11th April, 1999"
REM REPLAYGAIN_TRACK_GAIN 0.19 dB
REM REPLAYGAIN_TRACK_PEAK 0.720093
INDEX 00 03:18:03
FILE "02 - Dedication.flac" WAVE
INDEX 01 00:00:00
TRACK 03 AUDIO
TITLE "Sun One"
PERFORMER "Howard Riley"
SONGWRITER "Howard Riley"
REM COMMENT "Recorded on 11th April, 1999"
REM REPLAYGAIN_TRACK_GAIN -0.14 dB
REM REPLAYGAIN_TRACK_PEAK 0.597473
INDEX 00 05:09:04
FILE "03 - Sun One.flac" WAVE
INDEX 01 00:00:00
TRACK 04 AUDIO
TITLE "One More Time"
PERFORMER "Howard Riley"
SONGWRITER "Howard Riley"
REM COMMENT "Recorded on 11th April, 1999"
REM REPLAYGAIN_TRACK_GAIN 0.20 dB
REM REPLAYGAIN_TRACK_PEAK 0.621277
INDEX 00 03:47:42
FILE "04 - One More Time.flac" WAVE
INDEX 01 00:00:00
TRACK 05 AUDIO
TITLE "Axis"
PERFORMER "Howard Riley"
SONGWRITER "Howard Riley"
REM COMMENT "Recorded on 11th April, 1999"
REM REPLAYGAIN_TRACK_GAIN -0.27 dB
REM REPLAYGAIN_TRACK_PEAK 0.809937
INDEX 00 02:49:66
FILE "05 - Axis.flac" WAVE
INDEX 01 00:00:00
TRACK 06 AUDIO
TITLE "The Furthest Point"
PERFORMER "Howard Riley"
SONGWRITER "Howard Riley"
REM COMMENT "Recorded on 11th April, 1999"
REM REPLAYGAIN_TRACK_GAIN 1.81 dB
REM REPLAYGAIN_TRACK_PEAK 0.573364
INDEX 00 03:15:52
FILE "06 - The Furthest Point.flac" WAVE
INDEX 01 00:00:00
TRACK 07 AUDIO
TITLE "Aftre Which"
PERFORMER "Howard Riley"
SONGWRITER "Howard Riley"
REM COMMENT "Recorded on 11th April, 1999"
REM REPLAYGAIN_TRACK_GAIN 0.36 dB
REM REPLAYGAIN_TRACK_PEAK 0.725525
INDEX 00 03:43:67
FILE "07 - Aftre Which.flac" WAVE
INDEX 01 00:00:00
TRACK 08 AUDIO
TITLE "Air Time"
PERFORMER "Howard Riley"
SONGWRITER "Howard Riley"
REM COMMENT "Recorded on 11th April, 1999"
REM REPLAYGAIN_TRACK_GAIN -0.11 dB
REM REPLAYGAIN_TRACK_PEAK 0.661377
INDEX 00 04:45:49
FILE "08 - Air Time.flac" WAVE
INDEX 01 00:00:00
TRACK 09 AUDIO
TITLE "Alternatives"
PERFORMER "Howard Riley"
SONGWRITER "Howard Riley"
REM COMMENT "Recorded on 11th April, 1999"
REM REPLAYGAIN_TRACK_GAIN -0.68 dB
REM REPLAYGAIN_TRACK_PEAK 0.665253
INDEX 00 02:11:36
FILE "09 - Alternatives.flac" WAVE
INDEX 01 00:00:00
TRACK 10 AUDIO
TITLE "Regeneration"
PERFORMER "Howard Riley"
SONGWRITER "Howard Riley"
REM COMMENT "Recorded on 11th April, 1999"
REM REPLAYGAIN_TRACK_GAIN 1.08 dB
REM REPLAYGAIN_TRACK_PEAK 0.702972
INDEX 00 02:07:37
FILE "10 - Regeneration.flac" WAVE
INDEX 01 00:00:00
TRACK 11 AUDIO
TITLE "For Jaki"
PERFORMER "Howard Riley"
SONGWRITER "Howard Riley"
REM COMMENT "Recorded on 11th April, 1999"
REM REPLAYGAIN_TRACK_GAIN -0.68 dB
REM REPLAYGAIN_TRACK_PEAK 0.679657
INDEX 00 04:17:61
FILE "11 - For Jaki.flac" WAVE
INDEX 01 00:00:00
TRACK 12 AUDIO
TITLE "To Be Sure"
PERFORMER "Howard Riley"
SONGWRITER "Howard Riley"
REM COMMENT "Recorded on 11th April, 1999"
REM REPLAYGAIN_TRACK_GAIN -0.66 dB
REM REPLAYGAIN_TRACK_PEAK 0.639374
INDEX 00 03:47:50
FILE "12 - To Be Sure.flac" WAVE
INDEX 01 00:00:00
TRACK 13 AUDIO
TITLE "Sun Two"
PERFORMER "Howard Riley"
SONGWRITER "Howard Riley"
REM COMMENT "Recorded on 11th April, 1999"
REM REPLAYGAIN_TRACK_GAIN -0.37 dB
REM REPLAYGAIN_TRACK_PEAK 0.649841
INDEX 00 02:36:44
FILE "13 - Sun Two.flac" WAVE
INDEX 01 00:00:00
TRACK 14 AUDIO
TITLE "Sincerity"
PERFORMER "Howard Riley"
SONGWRITER "Howard Riley"
REM COMMENT "Recorded on 11th April, 1999"
REM REPLAYGAIN_TRACK_GAIN 0.17 dB
REM REPLAYGAIN_TRACK_PEAK 0.636230
INDEX 00 03:02:08
FILE "14 - Sincerity.flac" WAVE
INDEX 01 00:00:00
TRACK 15 AUDIO
TITLE "Of Now"
PERFORMER "Howard Riley"
SONGWRITER "Howard Riley"
REM COMMENT "Recorded on 11th April, 1999"
REM REPLAYGAIN_TRACK_GAIN 1.44 dB
REM REPLAYGAIN_TRACK_PEAK 0.497131
INDEX 00 03:42:43
FILE "15 - Of Now.flac" WAVE
INDEX 01 00:00:00
 
03 - 2004-06-29 (NB CD 23)


03 - 2004-06-29 (NB CD 23)

3-1 Geocentric One 3:43
3-2 Up And Downs 2:50
3-3 With Ease 3:14
3-4 The Gap 3:17
3-5 Think Again 3:24
3-6 Geocentric Two 3:26
3-7 Palmate 3:32
3-8 Walkabout 2:34
3-9 Reconciliation 3:33
3-10 Branch Lines 3:24
3-11 Head Games 2:35
3-12 Splits 2:32
3-13 Concision 3:48
3-14 Shenanigans 3:10
3-15 Maybe 5:40

 
.log
X Lossless Decoder version 20141129a (148.2)
XLD extraction logfile from 2015-11-11 11:37:27 +0300
Howard Riley / Complete Short Stories 1998-2010
Used drive : HL-DT-ST DVDRW GX30N (revision RP09)
Media type : Pressed CD
Ripper mode : XLD Secure Ripper
Disable audio cache : OK for the drive with a cache less than 1375KiB
Make use of C2 pointers : NO
Read offset correction : 6
Max retry count : 100
Gap status : Analyzed, Appended (except HTOA)
TOC of the extracted CD
Track | Start | Length | Start sector | End sector
---------------------------------------------------------
1 | 00:00:02 | 03:43:55 | 2 | 16781
2 | 03:43:57 | 02:50:00 | 16782 | 29531
3 | 06:33:57 | 03:14:30 | 29532 | 44111
4 | 09:48:12 | 03:16:73 | 44112 | 58884
5 | 13:05:10 | 03:24:39 | 58885 | 74223
6 | 16:29:49 | 03:26:19 | 74224 | 89692
7 | 19:55:68 | 03:32:38 | 89693 | 105630
8 | 23:28:31 | 02:33:74 | 105631 | 117179
9 | 26:02:30 | 03:32:62 | 117180 | 133141
10 | 29:35:17 | 03:24:20 | 133142 | 148461
11 | 32:59:37 | 02:34:44 | 148462 | 160055
12 | 35:34:06 | 02:32:07 | 160056 | 171462
13 | 38:06:13 | 03:47:52 | 171463 | 188539
14 | 41:53:65 | 03:10:35 | 188540 | 202824
15 | 45:04:25 | 05:40:60 | 202825 | 228384
AccurateRip Summary
Disc not found in AccurateRip DB.
All Tracks
Album gain : 0.22 dB
Peak : 0.576660
Statistics
Read error : 0
Jitter error (maybe fixed) : 0
Retry sector count : 0
Damaged sector count : 0
Track 01
Filename : /Users/anch/Music/Grabbed/Howard Riley/F 2011 - Complete Short Stories 1998-2010/03/01 - Geocentric One.flac
Pre-gap length : 00:02:02
Track gain : 0.70 dB
Peak : 0.547028
CRC32 hash (test run) : 5305FA4C
CRC32 hash : 5305FA4C
CRC32 hash (skip zero) : 480A05C0
AccurateRip v1 signature : 11EE51D9
AccurateRip v2 signature : E258502C
->Track not present in AccurateRip database.
Statistics
Read error : 0
Jitter error (maybe fixed) : 0
Retry sector count : 0
Damaged sector count : 0
Track 02
Filename : /Users/anch/Music/Grabbed/Howard Riley/F 2011 - Complete Short Stories 1998-2010/03/02 - Up And Downs.flac
Pre-gap length : 00:03:00
Track gain : -0.81 dB
Peak : 0.505859
CRC32 hash (test run) : 710B0FAA
CRC32 hash : 710B0FAA
CRC32 hash (skip zero) : 8C3499C2
AccurateRip v1 signature : 6BB09467
AccurateRip v2 signature : 1BE56ABC
->Track not present in AccurateRip database.
Statistics
Read error : 0
Jitter error (maybe fixed) : 0
Retry sector count : 0
Damaged sector count : 0
Track 03
Filename : /Users/anch/Music/Grabbed/Howard Riley/F 2011 - Complete Short Stories 1998-2010/03/03 - With Ease.flac
Pre-gap length : 00:03:00
Track gain : -0.32 dB
Peak : 0.517120
CRC32 hash (test run) : 94D96966
CRC32 hash : 94D96966
CRC32 hash (skip zero) : 75FFBFF4
AccurateRip v1 signature : CDF25BEB
AccurateRip v2 signature : 656F6A6B
->Track not present in AccurateRip database.
Statistics
Read error : 0
Jitter error (maybe fixed) : 0
Retry sector count : 0
Damaged sector count : 0
Track 04
Filename : /Users/anch/Music/Grabbed/Howard Riley/F 2011 - Complete Short Stories 1998-2010/03/04 - The Gap.flac
Pre-gap length : 00:03:00
Track gain : -0.12 dB
Peak : 0.534973
CRC32 hash (test run) : 7D085090
CRC32 hash : 7D085090
CRC32 hash (skip zero) : 079FCC51
AccurateRip v1 signature : 20452AE1
AccurateRip v2 signature : A548A7D7
->Track not present in AccurateRip database.
Statistics
Read error : 0
Jitter error (maybe fixed) : 0
Retry sector count : 0
Damaged sector count : 0
Track 05
Filename : /Users/anch/Music/Grabbed/Howard Riley/F 2011 - Complete Short Stories 1998-2010/03/05 - Think Again.flac
Pre-gap length : 00:03:00
Track gain : 0.44 dB
Peak : 0.518738
CRC32 hash (test run) : 96EDA6BB
CRC32 hash : 96EDA6BB
CRC32 hash (skip zero) : 285C1D10
AccurateRip v1 signature : 407A40A5
AccurateRip v2 signature : D71A85E7
->Track not present in AccurateRip database.
Statistics
Read error : 0
Jitter error (maybe fixed) : 0
Retry sector count : 0
Damaged sector count : 0
Track 06
Filename : /Users/anch/Music/Grabbed/Howard Riley/F 2011 - Complete Short Stories 1998-2010/03/06 - Geocentric Two.flac
Pre-gap length : 00:03:00
Track gain : 0.41 dB
Peak : 0.524414
CRC32 hash (test run) : 5CC741F3
CRC32 hash : 5CC741F3
CRC32 hash (skip zero) : 11FE0D71
AccurateRip v1 signature : D71E5FBE
AccurateRip v2 signature : D48B8955
->Track not present in AccurateRip database.
Statistics
Read error : 0
Jitter error (maybe fixed) : 0
Retry sector count : 0
Damaged sector count : 0
Track 07
Filename : /Users/anch/Music/Grabbed/Howard Riley/F 2011 - Complete Short Stories 1998-2010/03/07 - Palmate.flac
Pre-gap length : 00:03:00
Track gain : 0.73 dB
Peak : 0.532837
CRC32 hash (test run) : 63F5FB57
CRC32 hash : 63F5FB57
CRC32 hash (skip zero) : F088310C
AccurateRip v1 signature : 11DE4AE8
AccurateRip v2 signature : E953AD6F
->Track not present in AccurateRip database.
Statistics
Read error : 0
Jitter error (maybe fixed) : 0
Retry sector count : 0
Damaged sector count : 0
Track 08
Filename : /Users/anch/Music/Grabbed/Howard Riley/F 2011 - Complete Short Stories 1998-2010/03/08 - Walkabout.flac
Pre-gap length : 00:03:00
Track gain : 0.46 dB
Peak : 0.524078
CRC32 hash (test run) : 6BD1397C
CRC32 hash : 6BD1397C
CRC32 hash (skip zero) : B6DFF6A7
AccurateRip v1 signature : 4BA68915
AccurateRip v2 signature : 044F8CF3
->Track not present in AccurateRip database.
Statistics
Read error : 0
Jitter error (maybe fixed) : 0
Retry sector count : 0
Damaged sector count : 0
Track 09
Filename : /Users/anch/Music/Grabbed/Howard Riley/F 2011 - Complete Short Stories 1998-2010/03/09 - Reconciliation.flac
Pre-gap length : 00:03:00
Track gain : 0.02 dB
Peak : 0.502899
CRC32 hash (test run) : 6AE72B6F
CRC32 hash : 6AE72B6F
CRC32 hash (skip zero) : D9B2BA24
AccurateRip v1 signature : 7B74EA42
AccurateRip v2 signature : BDFC4500
->Track not present in AccurateRip database.
Statistics
Read error : 0
Jitter error (maybe fixed) : 0
Retry sector count : 0
Damaged sector count : 0
Track 10
Filename : /Users/anch/Music/Grabbed/Howard Riley/F 2011 - Complete Short Stories 1998-2010/03/10 - Branch Lines.flac
Pre-gap length : 00:03:00
Track gain : -0.16 dB
Peak : 0.526123
CRC32 hash (test run) : 7B160C44
CRC32 hash : 7B160C44
CRC32 hash (skip zero) : 9954FB08
AccurateRip v1 signature : 54D3CC94
AccurateRip v2 signature : D4B0DAB5
->Track not present in AccurateRip database.
Statistics
Read error : 0
Jitter error (maybe fixed) : 0
Retry sector count : 0
Damaged sector count : 0
Track 11
Filename : /Users/anch/Music/Grabbed/Howard Riley/F 2011 - Complete Short Stories 1998-2010/03/11 - Head Games.flac
Pre-gap length : 00:03:00
Track gain : -0.21 dB
Peak : 0.514526
CRC32 hash (test run) : 8DF8C07C
CRC32 hash : 8DF8C07C
CRC32 hash (skip zero) : 53FB7184
AccurateRip v1 signature : E21645D1
AccurateRip v2 signature : 6A003388
->Track not present in AccurateRip database.
Statistics
Read error : 0
Jitter error (maybe fixed) : 0
Retry sector count : 0
Damaged sector count : 0
Track 12
Filename : /Users/anch/Music/Grabbed/Howard Riley/F 2011 - Complete Short Stories 1998-2010/03/12 - Splits.flac
Pre-gap length : 00:03:00
Track gain : 0.27 dB
Peak : 0.523621
CRC32 hash (test run) : A8D5B6F8
CRC32 hash : A8D5B6F8
CRC32 hash (skip zero) : 16DDF796
AccurateRip v1 signature : 39E810E3
AccurateRip v2 signature : 2FAB0B03
->Track not present in AccurateRip database.
Statistics
Read error : 0
Jitter error (maybe fixed) : 0
Retry sector count : 0
Damaged sector count : 0
Track 13
Filename : /Users/anch/Music/Grabbed/Howard Riley/F 2011 - Complete Short Stories 1998-2010/03/13 - Concision.flac
Pre-gap length : 00:03:00
Track gain : 0.83 dB
Peak : 0.532440
CRC32 hash (test run) : BCC4621B
CRC32 hash : BCC4621B
CRC32 hash (skip zero) : 214CD4F0
AccurateRip v1 signature : 2BEA3DA3
AccurateRip v2 signature : 4769642C
->Track not present in AccurateRip database.
Statistics
Read error : 0
Jitter error (maybe fixed) : 0
Retry sector count : 0
Damaged sector count : 0
Track 14
Filename : /Users/anch/Music/Grabbed/Howard Riley/F 2011 - Complete Short Stories 1998-2010/03/14 - Shenanigans.flac
Pre-gap length : 00:03:00
Track gain : 0.74 dB
Peak : 0.528748
CRC32 hash (test run) : 3BE6296E
CRC32 hash : 3BE6296E
CRC32 hash (skip zero) : 0876ABD1
AccurateRip v1 signature : 95A78647
AccurateRip v2 signature : 750E8308
->Track not present in AccurateRip database.
Statistics
Read error : 0
Jitter error (maybe fixed) : 0
Retry sector count : 0
Damaged sector count : 0
Track 15
Filename : /Users/anch/Music/Grabbed/Howard Riley/F 2011 - Complete Short Stories 1998-2010/03/15 - Maybe.flac
Pre-gap length : 00:03:00
Track gain : 0.51 dB
Peak : 0.576660
CRC32 hash (test run) : F88A06E2
CRC32 hash : F88A06E2
CRC32 hash (skip zero) : 79903412
AccurateRip v1 signature : 0DD3F5F9
AccurateRip v2 signature : 726F71DB
->Track not present in AccurateRip database.
Statistics
Read error : 0
Jitter error (maybe fixed) : 0
Retry sector count : 0
Damaged sector count : 0
No errors occurred
End of status report
-----BEGIN XLD SIGNATURE-----
RHSivg1MRLGxU.HjQalH0FpoSH5pSaqSH1eYXVlsievHiL07RpKW8MbeigMwJuS2n4aT97PNjLPu9jGNdd.N73p4Dk78G4II6OdHca4
-----END XLD SIGNATURE-----
 
.cue
TITLE "The Complete Short Stories 1998-2010, 2004-06-29 (NB CD 23)"
PERFORMER "Howard Riley"
REM GENRE "Avant-Garde"
REM DATE "2011"
REM DISCNUMBER 3
REM TOTALDISCS 6
REM DISCID E00BE50F
REM REPLAYGAIN_ALBUM_GAIN 0.22 dB
REM REPLAYGAIN_ALBUM_PEAK 0.576660
FILE "01 - Geocentric One.flac" WAVE
TRACK 01 AUDIO
TITLE "Geocentric One"
PERFORMER "Howard Riley"
SONGWRITER "Howard Riley"
REM COMMENT "Recorded on 29th June 2004 "
REM REPLAYGAIN_TRACK_GAIN 0.70 dB
REM REPLAYGAIN_TRACK_PEAK 0.547028
PREGAP 00:00:02
INDEX 01 00:00:00
TRACK 02 AUDIO
TITLE "Up And Downs"
PERFORMER "Howard Riley"
SONGWRITER "Howard Riley"
REM COMMENT "Recorded on 29th June 2004 "
REM REPLAYGAIN_TRACK_GAIN -0.81 dB
REM REPLAYGAIN_TRACK_PEAK 0.505859
INDEX 00 03:40:55
FILE "02 - Up And Downs.flac" WAVE
INDEX 01 00:00:00
TRACK 03 AUDIO
TITLE "With Ease"
PERFORMER "Howard Riley"
SONGWRITER "Howard Riley"
REM COMMENT "Recorded on 29th June 2004 "
REM REPLAYGAIN_TRACK_GAIN -0.32 dB
REM REPLAYGAIN_TRACK_PEAK 0.517120
INDEX 00 02:47:00
FILE "03 - With Ease.flac" WAVE
INDEX 01 00:00:00
TRACK 04 AUDIO
TITLE "The Gap"
PERFORMER "Howard Riley"
SONGWRITER "Howard Riley"
REM COMMENT "Recorded on 29th June 2004 "
REM REPLAYGAIN_TRACK_GAIN -0.12 dB
REM REPLAYGAIN_TRACK_PEAK 0.534973
INDEX 00 03:11:30
FILE "04 - The Gap.flac" WAVE
INDEX 01 00:00:00
TRACK 05 AUDIO
TITLE "Think Again"
PERFORMER "Howard Riley"
SONGWRITER "Howard Riley"
REM COMMENT "Recorded on 29th June 2004 "
REM REPLAYGAIN_TRACK_GAIN 0.44 dB
REM REPLAYGAIN_TRACK_PEAK 0.518738
INDEX 00 03:13:73
FILE "05 - Think Again.flac" WAVE
INDEX 01 00:00:00
TRACK 06 AUDIO
TITLE "Geocentric Two"
PERFORMER "Howard Riley"
SONGWRITER "Howard Riley"
REM COMMENT "Recorded on 29th June 2004 "
REM REPLAYGAIN_TRACK_GAIN 0.41 dB
REM REPLAYGAIN_TRACK_PEAK 0.524414
INDEX 00 03:21:39
FILE "06 - Geocentric Two.flac" WAVE
INDEX 01 00:00:00
TRACK 07 AUDIO
TITLE "Palmate"
PERFORMER "Howard Riley"
SONGWRITER "Howard Riley"
REM COMMENT "Recorded on 29th June 2004 "
REM REPLAYGAIN_TRACK_GAIN 0.73 dB
REM REPLAYGAIN_TRACK_PEAK 0.532837
INDEX 00 03:23:19
FILE "07 - Palmate.flac" WAVE
INDEX 01 00:00:00
TRACK 08 AUDIO
TITLE "Walkabout"
PERFORMER "Howard Riley"
SONGWRITER "Howard Riley"
REM COMMENT "Recorded on 29th June 2004 "
REM REPLAYGAIN_TRACK_GAIN 0.46 dB
REM REPLAYGAIN_TRACK_PEAK 0.524078
INDEX 00 03:29:38
FILE "08 - Walkabout.flac" WAVE
INDEX 01 00:00:00
TRACK 09 AUDIO
TITLE "Reconciliation"
PERFORMER "Howard Riley"
SONGWRITER "Howard Riley"
REM COMMENT "Recorded on 29th June 2004 "
REM REPLAYGAIN_TRACK_GAIN 0.02 dB
REM REPLAYGAIN_TRACK_PEAK 0.502899
INDEX 00 02:30:74
FILE "09 - Reconciliation.flac" WAVE
INDEX 01 00:00:00
TRACK 10 AUDIO
TITLE "Branch Lines"
PERFORMER "Howard Riley"
SONGWRITER "Howard Riley"
REM COMMENT "Recorded on 29th June 2004 "
REM REPLAYGAIN_TRACK_GAIN -0.16 dB
REM REPLAYGAIN_TRACK_PEAK 0.526123
INDEX 00 03:29:62
FILE "10 - Branch Lines.flac" WAVE
INDEX 01 00:00:00
TRACK 11 AUDIO
TITLE "Head Games"
PERFORMER "Howard Riley"
SONGWRITER "Howard Riley"
REM COMMENT "Recorded on 29th June 2004 "
REM REPLAYGAIN_TRACK_GAIN -0.21 dB
REM REPLAYGAIN_TRACK_PEAK 0.514526
INDEX 00 03:21:20
FILE "11 - Head Games.flac" WAVE
INDEX 01 00:00:00
TRACK 12 AUDIO
TITLE "Splits"
PERFORMER "Howard Riley"
SONGWRITER "Howard Riley"
REM COMMENT "Recorded on 29th June 2004 "
REM REPLAYGAIN_TRACK_GAIN 0.27 dB
REM REPLAYGAIN_TRACK_PEAK 0.523621
INDEX 00 02:31:44
FILE "12 - Splits.flac" WAVE
INDEX 01 00:00:00
TRACK 13 AUDIO
TITLE "Concision"
PERFORMER "Howard Riley"
SONGWRITER "Howard Riley"
REM COMMENT "Recorded on 29th June 2004 "
REM REPLAYGAIN_TRACK_GAIN 0.83 dB
REM REPLAYGAIN_TRACK_PEAK 0.532440
INDEX 00 02:29:07
FILE "13 - Concision.flac" WAVE
INDEX 01 00:00:00
TRACK 14 AUDIO
TITLE "Shenanigans"
PERFORMER "Howard Riley"
SONGWRITER "Howard Riley"
REM COMMENT "Recorded on 29th June 2004 "
REM REPLAYGAIN_TRACK_GAIN 0.74 dB
REM REPLAYGAIN_TRACK_PEAK 0.528748
INDEX 00 03:44:52
FILE "14 - Shenanigans.flac" WAVE
INDEX 01 00:00:00
TRACK 15 AUDIO
TITLE "Maybe"
PERFORMER "Howard Riley"
SONGWRITER "Howard Riley"
REM COMMENT "Recorded on 29th June 2004 "
REM REPLAYGAIN_TRACK_GAIN 0.51 dB
REM REPLAYGAIN_TRACK_PEAK 0.576660
INDEX 00 03:07:35
FILE "15 - Maybe.flac" WAVE
INDEX 01 00:00:00
 
04 - 2006-08-02 (NB CD 24)


04 - 2006-08-02 (NB CD 24)

4-1 Another Time 3:36
4-2 No Regrets 3:12
4-3 Ascending 2:10
4-4 Still Standing 3:20
4-5 Threesome 2:27
4-6 Of The Moment 4:30
4-7 Reflective Tendencies 4:42
4-8 Inevitably 3:19
4-9 Sentiments 3:27
4-10 Open Question 4:29
4-11 Hidden Knowledge 4:52
4-12 Meeting 2:21
4-13 Hear Me Out 6:11
4-14 Passing 3:00
4-15 Roots 6:04

 
.log
X Lossless Decoder version 20141129a (148.2)
XLD extraction logfile from 2015-11-11 13:16:09 +0300
Howard Riley / Complete Short Stories 1998-2010
Used drive : HL-DT-ST DVDRW GX30N (revision RP09)
Media type : Pressed CD
Ripper mode : XLD Secure Ripper
Disable audio cache : OK for the drive with a cache less than 1375KiB
Make use of C2 pointers : NO
Read offset correction : 6
Max retry count : 100
Gap status : Analyzed, Appended (except HTOA)
TOC of the extracted CD
Track | Start | Length | Start sector | End sector
---------------------------------------------------------
1 | 00:00:02 | 03:35:72 | 2 | 16198
2 | 03:35:74 | 03:12:43 | 16199 | 30641
3 | 06:48:42 | 02:09:71 | 30642 | 40387
4 | 08:58:38 | 03:19:55 | 40388 | 55367
5 | 12:18:18 | 02:27:01 | 55368 | 66393
6 | 14:45:19 | 04:30:17 | 66394 | 86660
7 | 19:15:36 | 04:41:68 | 86661 | 107803
8 | 23
По всем вопросам пишите личное сообщение пользователю M0p94ok.
18:44
167
Нет комментариев. Ваш будет первым!