Поиск

(Free Improvisation / Avant-Garde Jazz / Solo) [CD] Michael Formanek - Am I Bothering You? - 1998, FLAC (tracks+.cue), lossless

(Free Improvisation / Avant-Garde Jazz / Solo) [CD] Michael Formanek - Am I Bothering You? - 1998, FLAC (tracks+.cue), lossless
Треклист:
Michael Formanek - Am I Bothering You?
Жанр: Free Improvisation / Avant-Garde Jazz / Solo
Носитель: CD
Страна-производитель диска (релиза): USA
Год издания: 1998
Издатель (лейбл): Screwgun Records
Номер по каталогу: scru u 70006
Аудиокодек: FLAC (*.flac)
Тип рипа: tracks+.cue
Битрейт аудио: lossless
Продолжительность: 00:49:45
Источник (релизер): what.cd / спасибо aquaminerale
Наличие сканов в содержимом раздачи: да
Треклист:
1. Crawlspace (04:19)
2. Diesel Shortbread (05:02)
3. Overhead Justice (03:23)
4. C-Clamp Wedgie (04:39)
5. Theramin (02:58)
6. Oh... The Glitch (08:28)
7. Ruff Kut (02:58)
8. Seams (07:04)
9. Osismodo (02:44)
10. Streams / Rollin' Stone (07:33)
Доп. информация:
Musicians:
Michael Formanek - bass (1, 5-10), Lowinsky bass (2-4)
Recorded at the Makebelieveballroom, West Shokan, NY on December 5 & 6, 1997 and
at Red Rock Recording, Saylorsburg, PA on July 2, 1997 (tracks 2 to 4)
Michael Formanek Official Site
Michael Formanek from Wikipedia, the free encyclopedia
 
... photo ...
 
Лог создания рипа
X Lossless Decoder version 20140504 (147.0)
XLD extraction logfile from 2014-09-25 11:35:42 -0400
Michael Formanek / Am I Bothering You?
Used drive : MATSHITA DVD-R UJ-8A8 (revision HB14)
Media type : Pressed CD
Ripper mode : XLD Secure Ripper
Disable audio cache : OK for the drive with a cache less than 1375KiB
Make use of C2 pointers : NO
Read offset correction : 102
Max retry count : 20
Gap status : Analyzed, Appended (except HTOA)
TOC of the extracted CD
Track | Start | Length | Start sector | End sector
---------------------------------------------------------
1 | 00:00:01 | 04:20:08 | 1 | 19508
2 | 04:20:09 | 05:02:47 | 19509 | 42205
3 | 09:22:56 | 03:22:73 | 42206 | 57428
4 | 12:45:54 | 04:38:08 | 57429 | 78286
5 | 17:23:62 | 02:54:14 | 78287 | 91350
6 | 20:18:01 | 08:28:52 | 91351 | 129502
7 | 28:46:53 | 02:58:06 | 129503 | 142858
8 | 31:44:59 | 07:40:07 | 142859 | 177365
9 | 39:24:66 | 02:44:68 | 177366 | 189733
10 | 42:09:59 | 07:33:32 | 189734 | 223740
AccurateRip Summary
Disc not found in AccurateRip DB.
All Tracks
Album gain : -0.64 dB
Peak : 1.000000
Statistics
Read error : 0
Jitter error (maybe fixed) : 0
Retry sector count : 3
Damaged sector count : 0
Track 01
Filename : /Users/hadjeikontoh/Documents/Am I Bothering You/Michael Formanek - Am I Bothering You? (1998) [FLAC]/01 Crawlspace
Michael Formanek - Am I Bothering You? (1998) [FLAC]/01 Crawlspace
Michael Formanek - Am I Bothering You? (1998) [FLAC]/01 Crawlspace
Michael Formanek - Am I Bothering You? (1998) [FLAC] /01 Crawlspace.flac
Pre-gap length : 00:02:01
Track gain : 1.67 dB
Peak : 0.999969
CRC32 hash (test run) : EA41632D
CRC32 hash : EA41632D
CRC32 hash (skip zero) : 9489E62E
AccurateRip v1 signature : 4F7016B0
AccurateRip v2 signature : EB287749
->Track not present in AccurateRip database.
Statistics
Read error : 0
Jitter error (maybe fixed) : 0
Retry sector count : 3
Damaged sector count : 0
Track 02
Filename : /Users/hadjeikontoh/Documents/Am I Bothering You/Michael Formanek - Am I Bothering You? (1998) [FLAC]/02 Diesel Shortbread
Michael Formanek - Am I Bothering You? (1998) [FLAC]/02 Diesel Shortbread
Michael Formanek - Am I Bothering You? (1998) [FLAC]/02 Diesel Shortbread
Michael Formanek - Am I Bothering You? (1998) [FLAC] /02 Diesel Shortbread.flac
Track gain : 1.08 dB
Peak : 1.000000
CRC32 hash (test run) : 655381C0
CRC32 hash : 655381C0
CRC32 hash (skip zero) : AE71186B
AccurateRip v1 signature : 9535CED5
AccurateRip v2 signature : B3DE4BE1
->Track not present in AccurateRip database.
Statistics
Read error : 0
Jitter error (maybe fixed) : 0
Retry sector count : 0
Damaged sector count : 0
Track 03
Filename : /Users/hadjeikontoh/Documents/Am I Bothering You/Michael Formanek - Am I Bothering You? (1998) [FLAC]/03 Overhead Justice
Michael Formanek - Am I Bothering You? (1998) [FLAC]/03 Overhead Justice
Michael Formanek - Am I Bothering You? (1998) [FLAC]/03 Overhead Justice
Michael Formanek - Am I Bothering You? (1998) [FLAC] /03 Overhead Justice.flac
Track gain : -3.01 dB
Peak : 0.955383
CRC32 hash (test run) : 08AEA5E9
CRC32 hash : 08AEA5E9
CRC32 hash (skip zero) : F7269C04
AccurateRip v1 signature : 29D82A2F
AccurateRip v2 signature : 62FEED77
->Track not present in AccurateRip database.
Statistics
Read error : 0
Jitter error (maybe fixed) : 0
Retry sector count : 0
Damaged sector count : 0
Track 04
Filename : /Users/hadjeikontoh/Documents/Am I Bothering You/Michael Formanek - Am I Bothering You? (1998) [FLAC]/04 C-Clamp Wedgie
Michael Formanek - Am I Bothering You? (1998) [FLAC]/04 C-Clamp Wedgie
Michael Formanek - Am I Bothering You? (1998) [FLAC]/04 C-Clamp Wedgie
Michael Formanek - Am I Bothering You? (1998) [FLAC] /04 C-Clamp Wedgie.flac
Track gain : -0.14 dB
Peak : 0.938812
CRC32 hash (test run) : 730CA967
CRC32 hash : 730CA967
CRC32 hash (skip zero) : 0379C492
AccurateRip v1 signature : 97378983
AccurateRip v2 signature : BE6B6ACB
->Track not present in AccurateRip database.
Statistics
Read error : 0
Jitter error (maybe fixed) : 0
Retry sector count : 0
Damaged sector count : 0
Track 05
Filename : /Users/hadjeikontoh/Documents/Am I Bothering You/Michael Formanek - Am I Bothering You? (1998) [FLAC]/05 Theramin
Michael Formanek - Am I Bothering You? (1998) [FLAC]/05 Theramin
Michael Formanek - Am I Bothering You? (1998) [FLAC]/05 Theramin
Michael Formanek - Am I Bothering You? (1998) [FLAC] /05 Theramin.flac
Track gain : 0.64 dB
Peak : 0.513000
CRC32 hash (test run) : B81A715E
CRC32 hash : B81A715E
CRC32 hash (skip zero) : B9874E39
AccurateRip v1 signature : 35B1632D
AccurateRip v2 signature : 35EE65F5
->Track not present in AccurateRip database.
Statistics
Read error : 0
Jitter error (maybe fixed) : 0
Retry sector count : 0
Damaged sector count : 0
Track 06
Filename : /Users/hadjeikontoh/Documents/Am I Bothering You/Michael Formanek - Am I Bothering You? (1998) [FLAC]/06 Oh...The Glitch
Michael Formanek - Am I Bothering You? (1998) [FLAC]/06 Oh...The Glitch
Michael Formanek - Am I Bothering You? (1998) [FLAC]/06 Oh...The Glitch
Michael Formanek - Am I Bothering You? (1998) [FLAC] /06 Oh...The Glitch.flac
Track gain : -1.22 dB
Peak : 1.000000
CRC32 hash (test run) : 3FA6BAC5
CRC32 hash : 3FA6BAC5
CRC32 hash (skip zero) : B2A46399
AccurateRip v1 signature : 2665DBE0
AccurateRip v2 signature : C9208496
->Track not present in AccurateRip database.
Statistics
Read error : 0
Jitter error (maybe fixed) : 0
Retry sector count : 0
Damaged sector count : 0
Track 07
Filename : /Users/hadjeikontoh/Documents/Am I Bothering You/Michael Formanek - Am I Bothering You? (1998) [FLAC]/07 Ruff Kut
Michael Formanek - Am I Bothering You? (1998) [FLAC]/07 Ruff Kut
Michael Formanek - Am I Bothering You? (1998) [FLAC]/07 Ruff Kut
Michael Formanek - Am I Bothering You? (1998) [FLAC] /07 Ruff Kut.flac
Track gain : 0.15 dB
Peak : 0.903137
CRC32 hash (test run) : 6F9DE922
CRC32 hash : 6F9DE922
CRC32 hash (skip zero) : DDB2AFEE
AccurateRip v1 signature : 016F8653
AccurateRip v2 signature : AE8E9933
->Track not present in AccurateRip database.
Statistics
Read error : 0
Jitter error (maybe fixed) : 0
Retry sector count : 0
Damaged sector count : 0
Track 08
Filename : /Users/hadjeikontoh/Documents/Am I Bothering You/Michael Formanek - Am I Bothering You? (1998) [FLAC]/08 Seams
Michael Formanek - Am I Bothering You? (1998) [FLAC]/08 Seams
Michael Formanek - Am I Bothering You? (1998) [FLAC]/08 Seams
Michael Formanek - Am I Bothering You? (1998) [FLAC] /08 Seams.flac
Track gain : -1.26 dB
Peak : 1.000000
CRC32 hash (test run) : 8A3DD4A7
CRC32 hash : 8A3DD4A7
CRC32 hash (skip zero) : 237554A3
AccurateRip v1 signature : BCFC2FAC
AccurateRip v2 signature : 67E448FA
->Track not present in AccurateRip database.
Statistics
Read error : 0
Jitter error (maybe fixed) : 0
Retry sector count : 0
Damaged sector count : 0
Track 09
Filename : /Users/hadjeikontoh/Documents/Am I Bothering You/Michael Formanek - Am I Bothering You? (1998) [FLAC]/09 Osimodo
Michael Formanek - Am I Bothering You? (1998) [FLAC]/09 Osimodo
Michael Formanek - Am I Bothering You? (1998) [FLAC]/09 Osimodo
Michael Formanek - Am I Bothering You? (1998) [FLAC] /09 Osimodo.flac
Track gain : -0.95 dB
Peak : 0.901550
CRC32 hash (test run) : 8E4B9505
CRC32 hash : 8E4B9505
CRC32 hash (skip zero) : EAF90171
AccurateRip v1 signature : 8A33D203
AccurateRip v2 signature : CE28C703
->Track not present in AccurateRip database.
Statistics
Read error : 0
Jitter error (maybe fixed) : 0
Retry sector count : 0
Damaged sector count : 0
Track 10
Filename : /Users/hadjeikontoh/Documents/Am I Bothering You/Michael Formanek - Am I Bothering You? (1998) [FLAC]/10 Streams/Rolling Stone
Michael Formanek - Am I Bothering You? (1998) [FLAC]/10 Streams/Rolling Stone
Michael Formanek - Am I Bothering You? (1998) [FLAC]/10 Streams/Rolling Stone
Michael Formanek - Am I Bothering You? (1998) [FLAC] /10 Streams/Rolling Stone.flac
Track gain : -0.22 dB
Peak : 0.999969
CRC32 hash (test run) : 79C9F5D3
CRC32 hash : 79C9F5D3
CRC32 hash (skip zero) : 9CB6B44E
AccurateRip v1 signature : 5568F3CB
AccurateRip v2 signature : 4146BBC4
->Track not present in AccurateRip database.
Statistics
Read error : 0
Jitter error (maybe fixed) : 0
Retry sector count : 0
Damaged sector count : 0
No errors occurred
End of status report
-----BEGIN XLD SIGNATURE-----
fQTtscNxftlrWFywI2WrnUK_DA4JW4UQEcZ97VwFU64w2RYe3g6oBzSLNsN61BmQkarcRlSXATY.FSSjVmD88VwXzfOPFdEXGxKT_Ba
-----END XLD SIGNATURE-----
 
Содержание индексной карты (.CUE)
REM COMMENT "CUETools generated dummy CUE sheet"
PERFORMER "Michael Formanek"
TITLE "Am I Bothering You?"
REM DATE 1998
REM GENRE "Jazz"
FILE "01 Crawlspace.flac" WAVE
TRACK 01 AUDIO
PERFORMER "Michael Formanek"
TITLE "Crawlspace"
PREGAP 00:00:01
INDEX 01 00:00:00
FILE "02 Diesel Shortbread.flac" WAVE
TRACK 02 AUDIO
PERFORMER "Michael Formanek"
TITLE "Diesel Shortbread"
INDEX 01 00:00:00
FILE "03 Overhead Justice.flac" WAVE
TRACK 03 AUDIO
PERFORMER "Michael Formanek"
TITLE "Overhead Justice"
INDEX 01 00:00:00
FILE "04 C-Clamp Wedgie.flac" WAVE
TRACK 04 AUDIO
PERFORMER "Michael Formanek"
TITLE "C-Clamp Wedgie"
INDEX 01 00:00:00
FILE "05 Theramin.flac" WAVE
TRACK 05 AUDIO
PERFORMER "Michael Formanek"
TITLE "Theramin"
INDEX 01 00:00:00
FILE "06 Oh...The Glitch.flac" WAVE
TRACK 06 AUDIO
PERFORMER "Michael Formanek"
TITLE "Oh...The Glitch"
INDEX 01 00:00:00
FILE "07 Ruff Kut.flac" WAVE
TRACK 07 AUDIO
PERFORMER "Michael Formanek"
TITLE "Ruff Kut"
INDEX 01 00:00:00
FILE "08 Seams.flac" WAVE
TRACK 08 AUDIO
PERFORMER "Michael Formanek"
TITLE "Seams"
INDEX 01 00:00:00
FILE "09 Osimodo.flac" WAVE
TRACK 09 AUDIO
PERFORMER "Michael Formanek"
TITLE "Osimodo"
INDEX 01 00:00:00
FILE "10 Streams/Rolling Stone.flac" WAVE
TRACK 10 AUDIO
PERFORMER "Michael Formanek"
TITLE "Streams/Rolling Stone"
INDEX 01 00:00:00
По всем вопросам пишите личное сообщение пользователю M0p94ok.
18:43
192
Нет комментариев. Ваш будет первым!