Вы используете незарегистрированную версию компонента "Вкладки"!

Поиск

(Avant-Garde Jazz) [CD] Nate Wooley Quintet (Josh Sinton, Matt Moran, Harris Eisenstadt, Eivind Opsvik) - (Dance to) the Early Music [by Wynton Marsalis] - 2015, FLAC (tracks+.cue), lossless

(Avant-Garde Jazz) [CD] Nate Wooley Quintet (Josh Sinton, Matt Moran, Harris Eisenstadt, Eivind Opsvik) - (Dance to) the Early Music [by Wynton Marsalis] - 2015, FLAC (tracks+.cue), lossless
Треклист:
NATE W⚫⚫LEY
QUINTET (DANCE TO) THE EARLY MUSIC
Жанр: Avant-Garde Jazz
Страна-производитель диска: Portugal
Год издания: 2015
Издатель (лейбл): Clean Feed Records
Номер по каталогу: CF350
Аудиокодек: FLAC (*.flac)
Тип рипа: tracks+.cue
Битрейт аудио: lossless
Продолжительность: 56:42
Источник (релизер): спасибо 6060842
Наличие сканов: нет
Треклист:
01. Hesitation
02. For Wee Folks
03. Blues
04. Delfeayo's Dilemma
05. Phryzzinian Man
06. On Insane Asylum
07. J Mood
08. Skain's Domain
09. Hesitation/Post-Hesitation
 
Лог создания рипа
X Lossless Decoder version 20151214 (149.1)
XLD extraction logfile from 2015-12-24 11:07:16 +0300
Nate Wooley Quintet / (Dance To) The Early Music
Used drive : HL-DT-ST DVDRW GX30N (revision RP09)
Media type : Pressed CD
Ripper mode : XLD Secure Ripper
Disable audio cache : OK for the drive with a cache less than 1375KiB
Make use of C2 pointers : NO
Read offset correction : 6
Max retry count : 100
Gap status : Analyzed, Appended (except HTOA)
TOC of the extracted CD
Track | Start | Length | Start sector | End sector
---------------------------------------------------------
1 | 00:00:00 | 04:17:68 | 0 | 19342
2 | 04:17:68 | 06:09:03 | 19343 | 47020
3 | 10:26:71 | 02:57:66 | 47021 | 60361
4 | 13:24:62 | 09:10:74 | 60362 | 101685
5 | 22:35:61 | 09:19:08 | 101686 | 143618
6 | 31:54:69 | 03:09:30 | 143619 | 157823
7 | 35:04:24 | 04:42:22 | 157824 | 178995
8 | 39:46:46 | 06:49:04 | 178996 | 209674
9 | 46:35:50 | 10:06:40 | 209675 | 255164
AccurateRip Summary
Disc not found in AccurateRip DB.
All Tracks
Album gain : -5.18 dB
Peak : 0.988586
Statistics
Read error : 0
Jitter error (maybe fixed) : 0
Retry sector count : 0
Damaged sector count : 0
Track 01
Filename : /Users/anch/Music/Grabbed/Nate Wooley Quintet/F 2015 - (Dance To) The Early Music/01 - Hesitation.flac
Pre-gap length : 00:02:00
Track gain : -6.42 dB
Peak : 0.988586
CRC32 hash (test run) : 072273B0
CRC32 hash : 072273B0
CRC32 hash (skip zero) : 5B4B7226
AccurateRip v1 signature : CB5955F7
AccurateRip v2 signature : E3515A14
->Track not present in AccurateRip database.
Statistics
Read error : 0
Jitter error (maybe fixed) : 0
Retry sector count : 0
Damaged sector count : 0
Track 02
Filename : /Users/anch/Music/Grabbed/Nate Wooley Quintet/F 2015 - (Dance To) The Early Music/02 - For Wee Folks.flac
Track gain : -4.97 dB
Peak : 0.988586
CRC32 hash (test run) : ABA71073
CRC32 hash : ABA71073
CRC32 hash (skip zero) : DAA44710
AccurateRip v1 signature : 2BEE51A6
AccurateRip v2 signature : AE07C903
->Track not present in AccurateRip database.
Statistics
Read error : 0
Jitter error (maybe fixed) : 0
Retry sector count : 0
Damaged sector count : 0
Track 03
Filename : /Users/anch/Music/Grabbed/Nate Wooley Quintet/F 2015 - (Dance To) The Early Music/03 - Blues.flac
Track gain : -5.04 dB
Peak : 0.988586
CRC32 hash (test run) : CEAA2EC3
CRC32 hash : CEAA2EC3
CRC32 hash (skip zero) : 60760240
AccurateRip v1 signature : B5A57905
AccurateRip v2 signature : B09A15A9
->Track not present in AccurateRip database.
Statistics
Read error : 0
Jitter error (maybe fixed) : 0
Retry sector count : 0
Damaged sector count : 0
Track 04
Filename : /Users/anch/Music/Grabbed/Nate Wooley Quintet/F 2015 - (Dance To) The Early Music/04 - Delfeayo's Dilemma.flac
Track gain : -4.31 dB
Peak : 0.988586
CRC32 hash (test run) : 77BB1F16
CRC32 hash : 77BB1F16
CRC32 hash (skip zero) : A33D48F6
AccurateRip v1 signature : 2F2833DD
AccurateRip v2 signature : AE450F85
->Track not present in AccurateRip database.
Statistics
Read error : 0
Jitter error (maybe fixed) : 0
Retry sector count : 0
Damaged sector count : 0
Track 05
Filename : /Users/anch/Music/Grabbed/Nate Wooley Quintet/F 2015 - (Dance To) The Early Music/05 - Phryzzinian Man.flac
Track gain : -5.15 dB
Peak : 0.988586
CRC32 hash (test run) : B1CB084F
CRC32 hash : B1CB084F
CRC32 hash (skip zero) : A486321D
AccurateRip v1 signature : 6C3D5334
AccurateRip v2 signature : 0681809B
->Track not present in AccurateRip database.
Statistics
Read error : 0
Jitter error (maybe fixed) : 0
Retry sector count : 0
Damaged sector count : 0
Track 06
Filename : /Users/anch/Music/Grabbed/Nate Wooley Quintet/F 2015 - (Dance To) The Early Music/06 - On Insane Asylum.flac
Track gain : -6.62 dB
Peak : 0.988586
CRC32 hash (test run) : 488E5D2B
CRC32 hash : 488E5D2B
CRC32 hash (skip zero) : D0F79CA8
AccurateRip v1 signature : FA4C67B4
AccurateRip v2 signature : 80A61CAF
->Track not present in AccurateRip database.
Statistics
Read error : 0
Jitter error (maybe fixed) : 0
Retry sector count : 0
Damaged sector count : 0
Track 07
Filename : /Users/anch/Music/Grabbed/Nate Wooley Quintet/F 2015 - (Dance To) The Early Music/07 - J Mood.flac
Track gain : -5.12 dB
Peak : 0.988586
CRC32 hash (test run) : 83B4D170
CRC32 hash : 83B4D170
CRC32 hash (skip zero) : B3C1717F
AccurateRip v1 signature : 693A5364
AccurateRip v2 signature : 6FD640FB
->Track not present in AccurateRip database.
Statistics
Read error : 0
Jitter error (maybe fixed) : 0
Retry sector count : 0
Damaged sector count : 0
Track 08
Filename : /Users/anch/Music/Grabbed/Nate Wooley Quintet/F 2015 - (Dance To) The Early Music/08 - Skain's Domain.flac
Track gain : -5.91 dB
Peak : 0.988586
CRC32 hash (test run) : C212BB00
CRC32 hash : C212BB00
CRC32 hash (skip zero) : 83CF7EE5
AccurateRip v1 signature : D2BD344C
AccurateRip v2 signature : 68E18261
->Track not present in AccurateRip database.
Statistics
Read error : 0
Jitter error (maybe fixed) : 0
Retry sector count : 0
Damaged sector count : 0
Track 09
Filename : /Users/anch/Music/Grabbed/Nate Wooley Quintet/F 2015 - (Dance To) The Early Music/09 - Hesitation & Post-Hesitation.flac
Track gain : -2.81 dB
Peak : 0.988586
CRC32 hash (test run) : 419F140E
CRC32 hash : 419F140E
CRC32 hash (skip zero) : 0F945465
AccurateRip v1 signature : DCF34A62
AccurateRip v2 signature : FADADA19
->Track not present in AccurateRip database.
Statistics
Read error : 0
Jitter error (maybe fixed) : 0
Retry sector count : 0
Damaged sector count : 0
No errors occurred
End of status report
-----BEGIN XLD SIGNATURE-----
Msc2aMjmxiqfMUaoQz4DsRxHKrAyTDLh.9XJdrpNxC_Nv.uJfqGuqI_G27bj7l7c842FtBzsHwEbV7hv6eaJRewI488dLgjku9ANHFO
-----END XLD SIGNATURE-----
 
Содержание индексной карты (.CUE)
TITLE "(Dance To) The Early Music"
PERFORMER "Nate Wooley Quintet"
CATALOG 5609063003505
REM GENRE "Free Jazz"
REM DATE "2015"
REM DISCNUMBER 1
REM TOTALDISCS 1
REM DISCID 880D4A09
REM REPLAYGAIN_ALBUM_GAIN -5.18 dB
REM REPLAYGAIN_ALBUM_PEAK 0.988586
FILE "01 - Hesitation.flac" WAVE
TRACK 01 AUDIO
TITLE "Hesitation"
PERFORMER "Nate Wooley Quintet"
ISRC PTNF11509280
REM REPLAYGAIN_TRACK_GAIN -6.42 dB
REM REPLAYGAIN_TRACK_PEAK 0.988586
INDEX 01 00:00:00
FILE "02 - For Wee Folks.flac" WAVE
TRACK 02 AUDIO
TITLE "For Wee Folks"
PERFORMER "Nate Wooley Quintet"
ISRC PTNF11509281
REM REPLAYGAIN_TRACK_GAIN -4.97 dB
REM REPLAYGAIN_TRACK_PEAK 0.988586
INDEX 01 00:00:00
FILE "03 - Blues.flac" WAVE
TRACK 03 AUDIO
TITLE "Blues"
PERFORMER "Nate Wooley Quintet"
ISRC PTNF11509282
REM REPLAYGAIN_TRACK_GAIN -5.04 dB
REM REPLAYGAIN_TRACK_PEAK 0.988586
INDEX 01 00:00:00
FILE "04 - Delfeayo's Dilemma.flac" WAVE
TRACK 04 AUDIO
TITLE "Delfeayo's Dilemma"
PERFORMER "Nate Wooley Quintet"
ISRC PTNF11509283
REM REPLAYGAIN_TRACK_GAIN -4.31 dB
REM REPLAYGAIN_TRACK_PEAK 0.988586
INDEX 01 00:00:00
FILE "05 - Phryzzinian Man.flac" WAVE
TRACK 05 AUDIO
TITLE "Phryzzinian Man"
PERFORMER "Nate Wooley Quintet"
ISRC PTNF11509284
REM REPLAYGAIN_TRACK_GAIN -5.15 dB
REM REPLAYGAIN_TRACK_PEAK 0.988586
INDEX 01 00:00:00
FILE "06 - On Insane Asylum.flac" WAVE
TRACK 06 AUDIO
TITLE "On Insane Asylum"
PERFORMER "Nate Wooley Quintet"
ISRC PTNF11509284
REM REPLAYGAIN_TRACK_GAIN -6.62 dB
REM REPLAYGAIN_TRACK_PEAK 0.988586
INDEX 01 00:00:00
FILE "07 - J Mood.flac" WAVE
TRACK 07 AUDIO
TITLE "J Mood"
PERFORMER "Nate Wooley Quintet"
ISRC PTNF11509284
REM REPLAYGAIN_TRACK_GAIN -5.12 dB
REM REPLAYGAIN_TRACK_PEAK 0.988586
INDEX 01 00:00:00
FILE "08 - Skain's Domain.flac" WAVE
TRACK 08 AUDIO
TITLE "Skain's Domain"
PERFORMER "Nate Wooley Quintet"
ISRC PTNF11509284
REM REPLAYGAIN_TRACK_GAIN -5.91 dB
REM REPLAYGAIN_TRACK_PEAK 0.988586
INDEX 01 00:00:00
FILE "09 - Hesitation & Post-Hesitation.flac" WAVE
TRACK 09 AUDIO
TITLE "Hesitation + Post-Hesitation"
PERFORMER "Nate Wooley Quintet"
ISRC PTNF11509284
REM REPLAYGAIN_TRACK_GAIN -2.81 dB
REM REPLAYGAIN_TRACK_PEAK 0.988586
INDEX 01 00:00:00
 
Об альбоме
Trumpeter Nate Wooley was a kid when he first heard Wynton Marsalis’ Black Codes (From The Underground). Like many jazz fans, he was floored by the creative frenzy of the (then) young phenom’s band. Through the years Wooley became increasingly impressed with their nuanced methodologies. Now, after developing his own impressive approach to improv, he tackles nuggets from some early-‘80s Marsalis classics, including J Mood and Wynton Marsalis. Thanks to imaginative arrangements and adventurous playing, they’re revitalized in his hands.
Wooley’s own work isn’t usually associated with classicism or repertory, but those who follow his music likely know of his diverse interests. He’s an expert in extended techniques, is fluent in myriad outside lingos and uses overt swing whenever the notion strikes him; in even the most experimental moments, his lyricism and harmonic expertise is obvious. Here, those skills serve Marsalis tunes that were written in the shadow of Miles Davis’ second classic quintet, and the updates are loaded with the kind of maneuvers that keep ears perked. The push and pull of “Delfeayo’s Dilemma,” the textural brocades of “Skain’s Domain,” the lithe minimalism of “Blues” – each is a hook to woo listeners into the action.
The quintet is marked by Josh Sinton’s bass clarinet and Matt Moran’s vibraphone; to a sizable degree, their blend distinguishes the band’s sound. Each gets ample space to stretch on Early Music. Moran’s buoyant glide rides a near rampage from drummer Harris Eisenstadt on “For Wee Folks” and Sinton’s expressive rumination bubbles up on “Phrizzinian Man.” (Don’t miss Wooley’s vigorous trumpet cackle on the second spin of “Hesitation.”) Throughout, it’s the way the entire group coalesces that makes the biggest impression. Their last outing, (Put Your) Hands Together, reminded listeners just how tight they are, but the gregariousness and groove of Marsalis’ tunes puts their enviable chemistry in an even more compelling light. This is the kind of repertory project that illuminates the interpreter more than the original source.
(DownBeat Magazine)
 
Состав

Nate Wooley - trumpet, compositions (3, 6, 9)
Josh Sinton - bass clarinet
Matt Moran - vibraphone
Eivind Opsvik - double bass
Harris Eisenstadt - drums
По всем вопросам пишите личное сообщение пользователю M0p94ok.
18:43
248
Нет комментариев. Ваш будет первым!