Поиск

(Avant-Garde Jazz, Modal Music, Soul-Jazz) [CD] Michael White - The Land of Spirit and Light - 1973 (2005), FLAC (tracks+.cue), lossless

(Avant-Garde Jazz, Modal Music, Soul-Jazz) [CD] Michael White - The Land of Spirit and Light - 1973 (2005), FLAC (tracks+.cue), lossless
Michael White - The Land of Spirit and Light
Жанр: Avant-Garde Jazz, Modal Music, Soul-Jazz
Носитель: CD
Страна-производитель диска (релиза): США
Год издания: 2005
Издатель (лейбл): Impulse!/Verve
Номер по каталогу: B0004277-02
Аудиокодек: FLAC (*.flac)
Тип рипа: tracks+.cue
Битрейт аудио: lossless
Продолжительность: 39:23
Источник (релизер): vdown (what)
Наличие сканов в содержимом раздачи: нет
Треклист:
01. The Land of Spirit and Light (Part 1) (White) - 2:43
02. The Land of Spirit and Light (Part 2) (White) - 3:22
03. The Land of Spirit and Light (Part 3) (White) - 4:34
04. Fatima's Garden (White) - 10:01
05. Fiesta Dominical (White) - 7:23
06. O Ancient One (White) - 8:52
07. Lament (Mankind) (McBee-White) - 2:28
Состав:
Michael White - violin
Prince Lasha - piccolo, flute, alto flute, clarinet
Ed Kelly - piano
Bob King - classical guitar
Cecil McBee - bass
Kenneth Nash - percussion
Stanley Nash, Kenny Jenkins, and ABC Messenger delivery man - vocals
Recorded at the Village Recorder, Los Angeles, CA on February 7-8, 1973.
 
Лог создания рипа
X Lossless Decoder version 20110924 (136.3)
XLD extraction logfile from 2011-10-13 17:31:38 +0000
Michael White / The Land of Spirit and Light
Used drive : HL-DT-ST DVDRW GSA-S10N (revision BP10)
Ripper mode : XLD Secure Ripper
Disable audio cache : OK for the drive with a cache less than 1375KiB
Make use of C2 pointers : NO
Read offset correction : 667
Max retry count : 100
Gap status : Analyzed, Appended
TOC of the extracted CD
Track | Start | Length | Start sector | End sector
---------------------------------------------------------
1 | 00:00:00 | 02:43:30 | 0 | 12254
2 | 02:43:30 | 03:21:72 | 12255 | 27401
3 | 06:05:27 | 04:33:53 | 27402 | 47929
4 | 10:39:05 | 10:01:37 | 47930 | 93041
5 | 20:40:42 | 07:23:20 | 93042 | 126286
6 | 28:03:62 | 08:52:18 | 126287 | 166204
7 | 36:56:05 | 02:27:38 | 166205 | 177267
AccurateRip Summary
Track 01 : OK (confidence 4)
Track 02 : OK (confidence 4)
Track 03 : OK (confidence 4)
Track 04 : OK (confidence 4)
Track 05 : OK (confidence 4)
Track 06 : OK (confidence 4)
Track 07 : OK (confidence 4)
->All tracks accurately ripped.
All Tracks
Album gain : -4.07 dB
Peak : 0.996368
Statistics
Read error : 0
Jitter error (maybe fixed) : 0
Retry sector count : 0
Damaged sector count : 0
Track 01
Filename : /Volumes/music/Michael White - The Land of Spirit and Light/01 - The Land of Spirit and Light (Part 1).flac
Pre-gap length : 00:02:00
Track gain : -5.78 dB
Peak : 0.996368
CRC32 hash (test run) : E88949CA
CRC32 hash : E88949CA
CRC32 hash (skip zero) : 677566AA
AccurateRip signature : 86A83CE2
->Accurately ripped! (confidence 4)
Statistics
Read error : 0
Jitter error (maybe fixed) : 0
Retry sector count : 0
Damaged sector count : 0
Track 02
Filename : /Volumes/music/Michael White - The Land of Spirit and Light/02 - The Land of Spirit and Light (Part 2).flac
Track gain : -5.30 dB
Peak : 0.985474
CRC32 hash (test run) : B6CB9200
CRC32 hash : B6CB9200
CRC32 hash (skip zero) : 34C35C8D
AccurateRip signature : EC678EFD
->Accurately ripped! (confidence 4)
Statistics
Read error : 0
Jitter error (maybe fixed) : 0
Retry sector count : 0
Damaged sector count : 0
Track 03
Filename : /Volumes/music/Michael White - The Land of Spirit and Light/03 - The Land of Spirit and Light (Part 3).flac
Track gain : -4.07 dB
Peak : 0.908813
CRC32 hash (test run) : A55AA2E3
CRC32 hash : A55AA2E3
CRC32 hash (skip zero) : 491C6B49
AccurateRip signature : 53CE8392
->Accurately ripped! (confidence 4)
Statistics
Read error : 0
Jitter error (maybe fixed) : 0
Retry sector count : 0
Damaged sector count : 0
Track 04
Filename : /Volumes/music/Michael White - The Land of Spirit and Light/04 - Fatima's Garden.flac
Track gain : -2.76 dB
Peak : 0.965149
CRC32 hash (test run) : 5054F88E
CRC32 hash : 5054F88E
CRC32 hash (skip zero) : 964ACCD1
AccurateRip signature : 217C59DA
->Accurately ripped! (confidence 4)
Statistics
Read error : 0
Jitter error (maybe fixed) : 0
Retry sector count : 0
Damaged sector count : 0
Track 05
Filename : /Volumes/music/Michael White - The Land of Spirit and Light/05 - Fiesta Dominical.flac
Track gain : -4.03 dB
Peak : 0.985779
CRC32 hash (test run) : 4E1E031A
CRC32 hash : 4E1E031A
CRC32 hash (skip zero) : DCFF101E
AccurateRip signature : F922B81B
->Accurately ripped! (confidence 4)
Statistics
Read error : 0
Jitter error (maybe fixed) : 0
Retry sector count : 0
Damaged sector count : 0
Track 06
Filename : /Volumes/music/Michael White - The Land of Spirit and Light/06 - O Ancient One.flac
Track gain : -4.16 dB
Peak : 0.988525
CRC32 hash (test run) : D05D603E
CRC32 hash : D05D603E
CRC32 hash (skip zero) : B646C4A1
AccurateRip signature : 54C017FA
->Accurately ripped! (confidence 4)
Statistics
Read error : 0
Jitter error (maybe fixed) : 0
Retry sector count : 0
Damaged sector count : 0
Track 07
Filename : /Volumes/music/Michael White - The Land of Spirit and Light/07 - Lament (Mankind).flac
Track gain : -2.25 dB
Peak : 0.665131
CRC32 hash (test run) : 5E77A1C0
CRC32 hash : 5E77A1C0
CRC32 hash (skip zero) : 952071FF
AccurateRip signature : D7400D20
->Accurately ripped! (confidence 4)
Statistics
Read error : 0
Jitter error (maybe fixed) : 0
Retry sector count : 0
Damaged sector count : 0
No errors occurred
End of status report
 
Содержание индексной карты (.CUE)
TITLE "The Land of Spirit and Light"
PERFORMER "Michael White"
CATALOG 0602498802809
REM GENRE "Jazz"
REM DATE "1973"
REM DISCID 53093B07
FILE "01 - The Land of Spirit and Light (Part 1).wav" WAVE
TRACK 01 AUDIO
TITLE "The Land of Spirit and Light (Part 1)"
ISRC USUM70501869
INDEX 01 00:00:00
FILE "02 - The Land of Spirit and Light (Part 2).wav" WAVE
TRACK 02 AUDIO
TITLE "The Land of Spirit and Light (Part 2)"
ISRC USUM70501870
INDEX 01 00:00:00
FILE "03 - The Land of Spirit and Light (Part 3).wav" WAVE
TRACK 03 AUDIO
TITLE "The Land of Spirit and Light (Part 3)"
ISRC USUM70501871
INDEX 01 00:00:00
FILE "04 - Fatima's Garden.wav" WAVE
TRACK 04 AUDIO
TITLE "Fatima's Garden"
ISRC USUM70501872
INDEX 01 00:00:00
FILE "05 - Fiesta Dominical.wav" WAVE
TRACK 05 AUDIO
TITLE "Fiesta Dominical"
ISRC USUM70501873
INDEX 01 00:00:00
FILE "06 - O Ancient One.wav" WAVE
TRACK 06 AUDIO
TITLE "O Ancient One"
ISRC USUM70501874
INDEX 01 00:00:00
FILE "07 - Lament (Mankind).wav" WAVE
TRACK 07 AUDIO
TITLE "Lament (Mankind)"
ISRC USUM70501875
INDEX 01 00:00:00
 
Отчет CUETools
[CUETools log; Date: 31.01.2016 23:53:53; Version: 2.1.5]
[CTDB TOCID: M5lMZdjJJgdn7Yn4RfbyC6zynD8-] found.
Track | CTDB Status
1 | (2/2) Accurately ripped
2 | (2/2) Accurately ripped
3 | (2/2) Accurately ripped
4 | (2/2) Accurately ripped
5 | (2/2) Accurately ripped
6 | (2/2) Accurately ripped
7 | (2/2) Accurately ripped
[AccurateRip ID: 0009ec95-003e9b24-53093b07] found.
Track [ CRC | V2 ] Status
01 [86a83ce2|1092d416] (4+3/7) Accurately ripped
02 [ec678efd|c9feac08] (4+3/7) Accurately ripped
03 [53ce8392|ee5491be] (4+3/7) Accurately ripped
04 [217c59da|63c3a78e] (4+3/7) Accurately ripped
05 [f922b81b|33a6e0e2] (4+3/7) Accurately ripped
06 [54c017fa|32e66846] (4+3/7) Accurately ripped
07 [d7400d20|a6359127] (4+3/7) Accurately ripped
Track Peak [ CRC32 ] [W/O NULL]
-- 99,6 [859D73C7] [6E433896]
01 99,6 [E88949CA] [677566AA]
02 98,5 [B6CB9200] [34C35C8D]
03 90,8 [A55AA2E3] [491C6B49]
04 96,5 [5054F88E] [964ACCD1]
05 98,5 [4E1E031A] [DCFF101E]
06 98,8 [D05D603E] [B646C4A1]
07 66,5 [5E77A1C0] [952071FF]
 
AllMusic Review by Thom Jurek
Released in 1974, Michael White's The Land of Spirit and Light is a spiritual jazz classic. Ambitious, outrageously creative, and aesthetically restless, it is simply one of the finest outings on the Impulse! label. Beginning with an unusual ensemble that included classical guitarist Bob King, bassist Cecil McBee, percussionist Kenneth Nash, Prince Lasha on woodwinds, and pianist Ed Kelly -- along with vocalist Stanley Nash and some unidentified others -- the set walks the line between improvisation and groove-based playing. The three-part title suite is a case in point, as McBee's bass creates a groove-based line and is flown over by White's violin and countermelodies by King. The melody from "Pt. 1" introduces "Pt. 2" and becomes a kind of freewheeling dance as soloists weave in and out and harmonic improvising becomes intuitive. "Pt. 3" changes directions entirely, as it is introduced briefly by percussion instruments cooking along to a speedy and pointed intersection with White and Kelly, the latter of whom solos in brief bursts before Lasha enters on flute and states an entirely new melody. The ten-minute "Fatima's Garden" is the hinge track on the disc, and is continually in the process of becoming as modal piano, bass, shimmering bells, and violin find a common ground about six minutes in before giving way to Lasha's flute as it meanders and wanders through the middle. There are Asian scales played by King, and the entire work comes off as a dreamscape. "Fiesta Dominical" sounds exactly like its title, with chanted vocals and Lasha's piccolo swirling about the mix. Even the thoroughly outside "O Ancient One," with its flamenco flavors courtesy of White, holds together because of its sparseness and inventiveness. No one player dominates, and the ensemble improvises as a whole until about three minutes in, when a groove rounds everybody up and Lasha's bass clarinet takes the improv groove in a loose contrapuntal exchange with White, whose deep Middle Eastern head covers the ground. The set closes with "Lament (Mankind)," a brief, mournful duet with White accompanied by McBee's bowed bass. It's startling, haunting, and an utterly unsettling way to end such a joyous recording, but it works because the sheer restlessness of the adventure has been so joyous. It adds a melancholy balance to the sounds of paradise. Wonderful.
18:47
273
Нет комментариев. Ваш будет первым!