Вы используете незарегистрированную версию компонента "Вкладки"!

Поиск

(Free Jazz, Avant-Garde) Anthony Braxton (w. Anthony Davis, Mark Helias, Ed Blackwell) - Six Compositions: Quartet {Antilles 422-848 585-2, USA} - 1982, APE (image+.cue) lossless

Треклист:
Anthony Braxton - Six Compositions: Quartet
Жанр: Free Jazz, Avant-Garde
Страна-производитель диска: USA
Год издания диска: 1982
Издатель (лейбл): Antilles
Номер по каталогу: 422-848 585-2
Аудио кодек: APE (*.ape)
Тип рипа: image+.cue
Битрейт аудио: lossless
Продолжительность: 00:41:39
Источник (релизер): barin99
Наличие сканов в содержимом раздачи: да
Треклист:
1. Composition No. 40b (7:09)
2. Composition No. 69n (7:51)
3. Composition No. 34 (6:17)
4. Composition No. 40a (9:04)
5. Composition No. 40g (5:00)
6. Composition No. 52 (6:11)
Recorded and Mixed at Generation Sound, October 21 & 22, 1981
Personnel:
Anthony Braxton — Clarinet (Contrabass), Clarinet (Soprano), Flute, Sax (Alto), Sax (Soprano), Sax (Tenor)
Anthony Davis — Piano
Mark Helias — Bass
Ed Blackwell — Drums
Produced by Anthony Braxton
 
Лог создания рипа (EAC Log)
Exact Audio Copy V1.0 beta 1 from 15. November 2010
EAC extraction logfile from 15. October 2011, 18:49
Anthony Braxton / Six Compositions: Quartet
Used drive : TSSTcorpDVD+-RW TS-L532B Adapter: 1 ID: 0
Read mode : Secure
Utilize accurate stream : Yes
Defeat audio cache : Yes
Make use of C2 pointers : No
Read offset correction : 704
Overread into Lead-In and Lead-Out : No
Fill up missing offset samples with silence : Yes
Delete leading and trailing silent blocks : No
Null samples used in CRC calculations : Yes
Used interface : Native Win32 interface for Win NT & 2000
Used output format : Internal WAV Routines
Sample format : 44.100 Hz; 16 Bit; Stereo
TOC of the extracted CD
Track | Start | Length | Start sector | End sector
---------------------------------------------------------
1 | 0:00.32 | 7:11.00 | 32 | 32356
2 | 7:11.32 | 7:51.58 | 32357 | 67739
3 | 15:03.15 | 6:19.35 | 67740 | 96199
4 | 21:22.50 | 9:07.17 | 96200 | 137241
5 | 30:29.67 | 4:59.53 | 137242 | 159719
6 | 35:29.45 | 6:10.55 | 159720 | 187524
Range status and errors
Selected range
Filename C:\Documents and Settings\VB\My Documents\BARIN99\Anthony Braxton - Six Compositions-Quartet\Anthony Braxton - Six Compositions- Quartet.wav
Peak level 90.7 %
Extraction speed 0.4 X
Range quality 100.0 %
Copy CRC E23E77BE
Copy OK
No errors occurred
AccurateRip summary
Track 1 cannot be verified as accurate (confidence 2) [AB089B75], AccurateRip returned [6E98005A]
Track 2 cannot be verified as accurate (confidence 2) [F0C5B0B9], AccurateRip returned [381612E0]
Track 3 cannot be verified as accurate (confidence 2) [78FA9730], AccurateRip returned [C2E7A6F2]
Track 4 cannot be verified as accurate (confidence 2) [702C4DE4], AccurateRip returned [18A61D53]
Track 5 cannot be verified as accurate (confidence 2) [9C4871AC], AccurateRip returned [090AAE17]
Track 6 cannot be verified as accurate (confidence 2) [4234BED0], AccurateRip returned [D9713DF6]
No tracks could be verified as accurate
You may have a different pressing from the one(s) in the database
End of status report
 
Содержание индексной карты (.CUE)
REM GENRE Jazz
REM DATE 1982
REM DISCID 3D09C406
REM COMMENT "ExactAudioCopy v1.0b1"
PERFORMER "Anthony Braxton"
TITLE "Six Compositions: Quartet"
FILE "Anthony Braxton - Six Compositions- Quartet.ape" WAVE
TRACK 01 AUDIO
TITLE "Composition No. 40B"
PERFORMER "Anthony Braxton"
INDEX 00 00:00:00
INDEX 01 00:00:32
TRACK 02 AUDIO
TITLE "Composition No. 69N"
PERFORMER "Anthony Braxton"
INDEX 00 07:09:62
INDEX 01 07:11:32
TRACK 03 AUDIO
TITLE "Composition No. 34"
PERFORMER "Anthony Braxton"
INDEX 00 15:01:05
INDEX 01 15:03:15
TRACK 04 AUDIO
TITLE "Composition No. 40A"
PERFORMER "Anthony Braxton"
INDEX 00 21:20:60
INDEX 01 21:22:50
TRACK 05 AUDIO
TITLE "Composition No. 40G"
PERFORMER "Anthony Braxton"
INDEX 00 30:27:47
INDEX 01 30:29:67
TRACK 06 AUDIO
TITLE "Composition No. 52"
PERFORMER "Anthony Braxton"
INDEX 00 35:28:67
INDEX 01 35:29:45
 
AMG
"Anthony Braxton (who on this album switches between alto, tenor, clarinets and contrabass clarinet) heads an all-star avant-garde quartet for a set also including pianist Anthony Davis, bassist Mark Helias and veteran drummer Ed Blackwell. There is plenty of diversity in Braxton's six originals and it is quite interesting to hear him perform with this unique one-time group."
По всем вопросам пишите личное сообщение пользователю M0p94ok.
17:39
276
Нет комментариев. Ваш будет первым!