Вы используете незарегистрированную версию компонента "Вкладки"!

Поиск

(Free Improvisation, Noise) 高柳昌行 (Masayuki Takayanagi) - Meta Improvisation (2cd) - 2011, FLAC (tracks+.cue), lossless

(Free Improvisation, Noise) 高柳昌行 (Masayuki Takayanagi) - Meta Improvisation (2cd) - 2011, FLAC (tracks+.cue), lossless
Треклист:
高柳昌行 / Meta Improvisation
Hokkaido Tour of November 21-28, 1984
Жанр: Free Improvisation, Noise
Страна-производитель диска: Япония
Год издания диска: 2011
Издатель (лейбл): Jinya Disc
Номер по каталогу: B-26 + JDR-006
Страна: Япония
Аудиокодек: FLAC (*.flac)
Тип рипа: tracks+.cue
Битрейт аудио: lossless
Продолжительность: 1:20:03
Источник (релизер): вот.сиди (dashdash1)
Наличие сканов в содержимом раздачи: нет
Треклист:
cd1 Meta Improvisation
1. Kushiro-1 27:17
2. Kitami-Mass Projection 11:17
3. Kushiro-3 5:35
4. Obihiro-2 13:12
5. Hakodate-2 6:09
6. Hakodate-4 4:14
7. Obihiro-3 7:20
cd2 1984.11.28 Hakodate-5 (bonus)
1. Hakodate-5 4:59
Recorded live during the Hokkaido Tour of November 21-28, 1984.
 
Лог создания рипа
Exact Audio Copy V1.0 beta 2 from 29. April 2011
EAC extraction logfile from 14. October 2011, 16:57
Masayuki Takayanagi / Meta Improvisation
Used drive : TSSTcorpCDDVDW TS-L633C Adapter: 0 ID: 1
Read mode : Secure
Utilize accurate stream : Yes
Defeat audio cache : Yes
Make use of C2 pointers : No
Read offset correction : 6
Overread into Lead-In and Lead-Out : No
Fill up missing offset samples with silence : Yes
Delete leading and trailing silent blocks : No
Null samples used in CRC calculations : Yes
Used interface : Native Win32 interface for Win NT & 2000
Gap handling : Appended to previous track
Used output format : User Defined Encoder
Selected bitrate : 128 kBit/s
Quality : High
Add ID3 tag : No
Command line compressor : C:\Program Files (x86)\Exact Audio Copy\Flac\flac.exe
Additional command line options : -8 -V -T "ARTIST=%artist%" -T "TITLE=%title%" -T "ALBUM=%albumtitle%" -T "DATE=%year%" -T "TRACKNUMBER=%tracknr%" -T "GENRE=%genre%" -T "PERFORMER=%albuminterpret%" -T "COMPOSER=%composer%" %haslyrics%--tag-from-file=LYRICS
TOC of the extracted CD
Track | Start | Length | Start sector | End sector
---------------------------------------------------------
1 | 0:00.00 | 27:16.64 | 0 | 122763
2 | 27:16.64 | 11:17.00 | 122764 | 173538
3 | 38:33.64 | 5:34.66 | 173539 | 198654
4 | 44:08.55 | 13:12.21 | 198655 | 258075
5 | 57:21.01 | 6:09.13 | 258076 | 285763
6 | 63:30.14 | 4:13.43 | 285764 | 304781
7 | 67:43.57 | 7:20.12 | 304782 | 337793
Track 1
Filename C:\EAC rips\01 - Kushiro-1.wav
Pre-gap length 0:00:02.00
Peak level 97.7 %
Extraction speed 1.7 X
Track quality 100.0 %
Test CRC 934F98A7
Copy CRC 934F98A7
Track not present in AccurateRip database
Copy OK
Track 2
Filename C:\EAC rips\02 - Kitami-Mass Projection.wav
Pre-gap length 0:00:08.71
Peak level 100.0 %
Extraction speed 2.2 X
Track quality 100.0 %
Test CRC 0C1474DC
Copy CRC 0C1474DC
Track not present in AccurateRip database
Copy OK
Track 3
Filename C:\EAC rips\03 - Kushiro-3.wav
Pre-gap length 0:00:06.44
Peak level 99.4 %
Extraction speed 2.2 X
Track quality 100.0 %
Test CRC 948E281E
Copy CRC 948E281E
Track not present in AccurateRip database
Copy OK
Track 4
Filename C:\EAC rips\04 - Obihiro-2.wav
Pre-gap length 0:00:07.52
Peak level 99.7 %
Extraction speed 2.6 X
Track quality 100.0 %
Test CRC E7A9EE06
Copy CRC E7A9EE06
Track not present in AccurateRip database
Copy OK
Track 5
Filename C:\EAC rips\05 - Hakodate-2.wav
Pre-gap length 0:00:08.32
Peak level 100.0 %
Extraction speed 2.4 X
Track quality 99.9 %
Test CRC F5DF1193
Copy CRC F5DF1193
Track not present in AccurateRip database
Copy OK
Track 6
Filename C:\EAC rips\06 - Hakodate-4.wav
Pre-gap length 0:00:08.05
Peak level 98.3 %
Extraction speed 2.5 X
Track quality 100.0 %
Test CRC 6383638C
Copy CRC 6383638C
Track not present in AccurateRip database
Copy OK
Track 7
Filename C:\EAC rips\07 - Obihiro-3.wav
Pre-gap length 0:00:06.25
Peak level 99.0 %
Extraction speed 2.8 X
Track quality 100.0 %
Test CRC 927C690F
Copy CRC 927C690F
Track not present in AccurateRip database
Copy OK
None of the tracks are present in the AccurateRip database
No errors occurred
End of status report
==== Log checksum 5740A306E505EB5E86278287E771BE9C08103F5717315D0CE2074D3FAC301606 ====


Exact Audio Copy V1.0 beta 2 from 29. April 2011
EAC extraction logfile from 14. October 2011, 17:08
Masayuki Takayanagi / 1984.11.28 Hakodate-5
Used drive : TSSTcorpCDDVDW TS-L633C Adapter: 0 ID: 1
Read mode : Secure
Utilize accurate stream : Yes
Defeat audio cache : Yes
Make use of C2 pointers : No
Read offset correction : 6
Overread into Lead-In and Lead-Out : No
Fill up missing offset samples with silence : Yes
Delete leading and trailing silent blocks : No
Null samples used in CRC calculations : Yes
Used interface : Native Win32 interface for Win NT & 2000
Gap handling : Appended to previous track
Used output format : User Defined Encoder
Selected bitrate : 128 kBit/s
Quality : High
Add ID3 tag : No
Command line compressor : C:\Program Files (x86)\Exact Audio Copy\Flac\flac.exe
Additional command line options : -8 -V -T "ARTIST=%artist%" -T "TITLE=%title%" -T "ALBUM=%albumtitle%" -T "DATE=%year%" -T "TRACKNUMBER=%tracknr%" -T "GENRE=%genre%" -T "PERFORMER=%albuminterpret%" -T "COMPOSER=%composer%" %haslyrics%--tag-from-file=LYRICS
TOC of the extracted CD
Track | Start | Length | Start sector | End sector
---------------------------------------------------------
1 | 0:00.00 | 4:58.66 | 0 | 22415
Track 1
Filename C:\EAC rips\01 - Hakodate-5.wav
Pre-gap length 0:00:02.00
Peak level 100.0 %
Extraction speed 1.2 X
Track quality 100.0 %
Test CRC E5E47681
Copy CRC E5E47681
Track not present in AccurateRip database
Copy OK
None of the tracks are present in the AccurateRip database
No errors occurred
End of status report
==== Log checksum 94E4864187BFE2DC898CAC3AAE00E68C6707A945319609CC1D681C4BDF983CEA ====
 
Содержание индексной карты (.CUE)
REM DATE 2011
REM DISCID 57119707
REM COMMENT "ExactAudioCopy v1.0b2"
FILE "01 - Kushiro-1.wav" WAVE
TRACK 01 AUDIO
INDEX 01 00:00:00
TRACK 02 AUDIO
INDEX 00 27:07:68
FILE "02 - Kitami-Mass Projection.wav" WAVE
INDEX 01 00:00:00
TRACK 03 AUDIO
INDEX 00 11:10:31
FILE "03 - Kushiro-3.wav" WAVE
INDEX 01 00:00:00
TRACK 04 AUDIO
INDEX 00 05:27:14
FILE "04 - Obihiro-2.wav" WAVE
INDEX 01 00:00:00
TRACK 05 AUDIO
INDEX 00 13:03:64
FILE "05 - Hakodate-2.wav" WAVE
INDEX 01 00:00:00
TRACK 06 AUDIO
INDEX 00 06:01:08
FILE "06 - Hakodate-4.wav" WAVE
INDEX 01 00:00:00
TRACK 07 AUDIO
INDEX 00 04:07:18
FILE "07 - Obihiro-3.wav" WAVE
INDEX 01 00:00:00


REM DATE 2011
REM DISCID 02012A01
REM COMMENT "ExactAudioCopy v1.0b2"
FILE "01 - Hakodate-5.wav" WAVE
TRACK 01 AUDIO
INDEX 01 00:00:00
 
Лог проверки качества
AUDIOCHECKER v2.0 beta (build 457) - by Dester - opdester@freemail.hu
~~~~~~~~~~~~~~~~~~~~~~~~~~~~~~~~~~
-=== DO NOT EDIT THIS FILE! ===-
Path: ...\Masayuki Takayanagi - Meta Improvisation (2011) [FLAC] {B-26}
1 -=- 01 - Kushiro-1.flac -=- CDDA (100%)
2 -=- 02 - Kitami-Mass Projection.flac -=- CDDA (100%)
3 -=- 03 - Kushiro-3.flac -=- CDDA (100%)
4 -=- 04 - Obihiro-2.flac -=- CDDA (100%)
5 -=- 05 - Hakodate-2.flac -=- CDDA (99%)
6 -=- 06 - Hakodate-4.flac -=- CDDA (100%)
7 -=- 07 - Obihiro-3.flac -=- CDDA (100%)
Summary 99,86% CDDA
261510036


AUDIOCHECKER v2.0 beta (build 457) - by Dester - opdester@freemail.hu
~~~~~~~~~~~~~~~~~~~~~~~~~~~~~~~~~~
-=== DO NOT EDIT THIS FILE! ===-
Path: ...\Masayuki Takayanagi - 1984.11.28 Hakodate-5 (2011) [FLAC] {JDR-006}
1 -=- 01 - Hakodate-5.flac -=- CDDA (85%)
263367588
 
Состав
Masayuki Takayanagi guitar & electronics
Any questions -> support@pro-jazz.com. По всем вопросам пишите -> support@pro-jazz.com
17:38
171
Нет комментариев. Ваш будет первым!