Вы используете незарегистрированную версию компонента "Вкладки"!

Поиск

(Free Jazz, Ambient) Bill McHenry - Roses - 2007, FLAC (tracks+.cue), lossless

(Free Jazz, Ambient) Bill McHenry - Roses - 2007, FLAC (tracks+.cue), lossless
Треклист:
Bill McHenry - Roses
Жанр: Free Jazz , Ambient
Страна-производитель диска: USA
Год издания диска: 2007
Страна: USA
Аудиокодек: FLAC (*.flac)
Тип рипа: tracks+.cue
Битрейт аудио: lossless
Продолжительность: 00:48:49
Источник (релизер): What CD
Наличие сканов в содержимом раздачи: нет
Треклист:
01 - Roses
02 - African Song
03 - The Abyss Open Up
04 - The City
05 - The New One
06 - The Lizard
07 - Keys Of C
08 - Symphony
09 - Phoyo-Synthetic
Bill McHenry - tenor saxophone
Ben Monder - guitar
Reid Anderson - bass
Paul Motian - drums
 
Лог создания рипа
X Lossless Decoder version 20101212 (126.2)
XLD extraction logfile from 2010-12-19 17:19:01 -0500
Bill McHenry / Roses
Used drive : HL-DT-ST DVDRW GS21N (revision SA18)
Ripper mode : CDParanoia III 10.2
Disable audio cache : OK for the drive with a cache less than 2750KiB
Make use of C2 pointers : NO
Read offset correction : 667
Max retry count : 100
Gap status : Analyzed, Appended
TOC of the extracted CD
Track | Start | Length | Start sector | End sector
---------------------------------------------------------
1 | 00:00:00 | 06:10:15 | 0 | 27764
2 | 06:10:15 | 04:26:38 | 27765 | 47752
3 | 10:36:53 | 04:46:19 | 47753 | 69221
4 | 15:22:72 | 03:50:36 | 69222 | 86507
5 | 19:13:33 | 04:44:53 | 86508 | 107860
6 | 23:58:11 | 09:00:03 | 107861 | 148363
7 | 32:58:14 | 08:06:02 | 148364 | 184815
8 | 41:04:16 | 03:27:57 | 184816 | 200397
9 | 44:31:73 | 04:20:45 | 200398 | 219942
AccurateRip Summary
Track 01 : OK (confidence 2)
Track 02 : OK (confidence 2)
Track 03 : OK (confidence 2)
Track 04 : OK (confidence 2)
Track 05 : OK (confidence 2)
Track 06 : OK (confidence 2)
Track 07 : OK (confidence 2)
Track 08 : OK (confidence 2)
Track 09 : OK (confidence 2)
->All tracks accurately ripped.
All Tracks
Album gain : -4.89 dB
Peak : 0.977356
Statistics
Read error : 0
Skipped (treated as error) : 0
Edge jitter error (maybe fixed) : 10
Atom jitter error (maybe fixed) : 3
Drift error (maybe fixed) : 0
Dropped bytes error (maybe fixed) : 0
Duplicated bytes error (maybe fixed) : 9
Track 01
Filename : /Users/davidnkarp/Desktop/what.cd/music/Bill McHenry - Roses (2007)/01 - Roses.m4a
/Users/davidnkarp/Desktop/what.cd/music/Bill McHenry - Roses (2007)/01 - Roses.flac
/Users/davidnkarp/Desktop/what.cd/music/Bill McHenry - Roses (2007)/01 - Roses(LAME MP3 (VBR-new quality 0.0)).mp3
/Users/davidnkarp/Desktop/what.cd/music/Bill McHenry - Roses (2007)/01 - Roses.ogg
/Users/davidnkarp/Desktop/what.cd/music/Bill McHenry - Roses (2007)/01 - Roses(LAME MP3 (VBR-new quality 2.0)).mp3
Pre-gap length : 00:02:00
Track gain : -4.86 dB
Peak : 0.977356
CRC32 hash (test run) : 660633DB
CRC32 hash : 660633DB
CRC32 hash (skip zero) : 0FFB8DFC
AccurateRip signature : 8A03D8BF
->Accurately ripped! (confidence 2)
Statistics
Read error : 0
Skipped (treated as error) : 0
Edge jitter error (maybe fixed) : 0
Atom jitter error (maybe fixed) : 0
Drift error (maybe fixed) : 0
Dropped bytes error (maybe fixed) : 0
Duplicated bytes error (maybe fixed) : 0
Inconsistency in error sectors : 0
Track 02
Filename : /Users/davidnkarp/Desktop/what.cd/music/Bill McHenry - Roses (2007)/02 - African Song.m4a
/Users/davidnkarp/Desktop/what.cd/music/Bill McHenry - Roses (2007)/02 - African Song.flac
/Users/davidnkarp/Desktop/what.cd/music/Bill McHenry - Roses (2007)/02 - African Song(LAME MP3 (VBR-new quality 0.0)).mp3
/Users/davidnkarp/Desktop/what.cd/music/Bill McHenry - Roses (2007)/02 - African Song.ogg
/Users/davidnkarp/Desktop/what.cd/music/Bill McHenry - Roses (2007)/02 - African Song(LAME MP3 (VBR-new quality 2.0)).mp3
Track gain : -4.77 dB
Peak : 0.977356
CRC32 hash (test run) : 37C72593
CRC32 hash : 37C72593
CRC32 hash (skip zero) : 7672085B
AccurateRip signature : FC97716A
->Accurately ripped! (confidence 2)
Statistics
Read error : 0
Skipped (treated as error) : 0
Edge jitter error (maybe fixed) : 1
Atom jitter error (maybe fixed) : 1
Drift error (maybe fixed) : 0
Dropped bytes error (maybe fixed) : 0
Duplicated bytes error (maybe fixed) : 1
Inconsistency in error sectors : 0
Track 03
Filename : /Users/davidnkarp/Desktop/what.cd/music/Bill McHenry - Roses (2007)/03 - The Abyss Open Up.m4a
/Users/davidnkarp/Desktop/what.cd/music/Bill McHenry - Roses (2007)/03 - The Abyss Open Up.flac
/Users/davidnkarp/Desktop/what.cd/music/Bill McHenry - Roses (2007)/03 - The Abyss Open Up(LAME MP3 (VBR-new quality 0.0)).mp3
/Users/davidnkarp/Desktop/what.cd/music/Bill McHenry - Roses (2007)/03 - The Abyss Open Up.ogg
/Users/davidnkarp/Desktop/what.cd/music/Bill McHenry - Roses (2007)/03 - The Abyss Open Up(LAME MP3 (VBR-new quality 2.0)).mp3
Track gain : -3.92 dB
Peak : 0.977295
CRC32 hash (test run) : D9688872
CRC32 hash : D9688872
CRC32 hash (skip zero) : A4BEF5BE
AccurateRip signature : D564EB97
->Accurately ripped! (confidence 2)
Statistics
Read error : 0
Skipped (treated as error) : 0
Edge jitter error (maybe fixed) : 1
Atom jitter error (maybe fixed) : 0
Drift error (maybe fixed) : 0
Dropped bytes error (maybe fixed) : 0
Duplicated bytes error (maybe fixed) : 1
Inconsistency in error sectors : 0
Track 04
Filename : /Users/davidnkarp/Desktop/what.cd/music/Bill McHenry - Roses (2007)/04 - The City.m4a
/Users/davidnkarp/Desktop/what.cd/music/Bill McHenry - Roses (2007)/04 - The City.flac
/Users/davidnkarp/Desktop/what.cd/music/Bill McHenry - Roses (2007)/04 - The City(LAME MP3 (VBR-new quality 0.0)).mp3
/Users/davidnkarp/Desktop/what.cd/music/Bill McHenry - Roses (2007)/04 - The City.ogg
/Users/davidnkarp/Desktop/what.cd/music/Bill McHenry - Roses (2007)/04 - The City(LAME MP3 (VBR-new quality 2.0)).mp3
Track gain : -5.52 dB
Peak : 0.977356
CRC32 hash (test run) : BCF62C2C
CRC32 hash : BCF62C2C
CRC32 hash (skip zero) : 38D95FD7
AccurateRip signature : A11058AE
->Accurately ripped! (confidence 2)
Statistics
Read error : 0
Skipped (treated as error) : 0
Edge jitter error (maybe fixed) : 1
Atom jitter error (maybe fixed) : 0
Drift error (maybe fixed) : 0
Dropped bytes error (maybe fixed) : 0
Duplicated bytes error (maybe fixed) : 1
Inconsistency in error sectors : 0
Track 05
Filename : /Users/davidnkarp/Desktop/what.cd/music/Bill McHenry - Roses (2007)/05 - The New One.m4a
/Users/davidnkarp/Desktop/what.cd/music/Bill McHenry - Roses (2007)/05 - The New One.flac
/Users/davidnkarp/Desktop/what.cd/music/Bill McHenry - Roses (2007)/05 - The New One(LAME MP3 (VBR-new quality 0.0)).mp3
/Users/davidnkarp/Desktop/what.cd/music/Bill McHenry - Roses (2007)/05 - The New One.ogg
/Users/davidnkarp/Desktop/what.cd/music/Bill McHenry - Roses (2007)/05 - The New One(LAME MP3 (VBR-new quality 2.0)).mp3
Pre-gap length : 00:01:07
Track gain : -4.75 dB
Peak : 0.977356
CRC32 hash (test run) : D08DB7C9
CRC32 hash : D08DB7C9
CRC32 hash (skip zero) : B0EA025A
AccurateRip signature : 4BD02A0B
->Accurately ripped! (confidence 2)
Statistics
Read error : 0
Skipped (treated as error) : 0
Edge jitter error (maybe fixed) : 2
Atom jitter error (maybe fixed) : 0
Drift error (maybe fixed) : 0
Dropped bytes error (maybe fixed) : 0
Duplicated bytes error (maybe fixed) : 2
Inconsistency in error sectors : 0
Track 06
Filename : /Users/davidnkarp/Desktop/what.cd/music/Bill McHenry - Roses (2007)/06 - The Lizard.m4a
/Users/davidnkarp/Desktop/what.cd/music/Bill McHenry - Roses (2007)/06 - The Lizard.flac
/Users/davidnkarp/Desktop/what.cd/music/Bill McHenry - Roses (2007)/06 - The Lizard(LAME MP3 (VBR-new quality 0.0)).mp3
/Users/davidnkarp/Desktop/what.cd/music/Bill McHenry - Roses (2007)/06 - The Lizard.ogg
/Users/davidnkarp/Desktop/what.cd/music/Bill McHenry - Roses (2007)/06 - The Lizard(LAME MP3 (VBR-new quality 2.0)).mp3
Track gain : -4.94 dB
Peak : 0.977356
CRC32 hash (test run) : 7BEFAF96
CRC32 hash : 7BEFAF96
CRC32 hash (skip zero) : 6F3A022F
AccurateRip signature : 6A40550D
->Accurately ripped! (confidence 2)
Statistics
Read error : 0
Skipped (treated as error) : 0
Edge jitter error (maybe fixed) : 1
Atom jitter error (maybe fixed) : 0
Drift error (maybe fixed) : 0
Dropped bytes error (maybe fixed) : 0
Duplicated bytes error (maybe fixed) : 1
Inconsistency in error sectors : 0
Track 07
Filename : /Users/davidnkarp/Desktop/what.cd/music/Bill McHenry - Roses (2007)/07 - Keys Of C.m4a
/Users/davidnkarp/Desktop/what.cd/music/Bill McHenry - Roses (2007)/07 - Keys Of C.flac
/Users/davidnkarp/Desktop/what.cd/music/Bill McHenry - Roses (2007)/07 - Keys Of C(LAME MP3 (VBR-new quality 0.0)).mp3
/Users/davidnkarp/Desktop/what.cd/music/Bill McHenry - Roses (2007)/07 - Keys Of C.ogg
/Users/davidnkarp/Desktop/what.cd/music/Bill McHenry - Roses (2007)/07 - Keys Of C(LAME MP3 (VBR-new quality 2.0)).mp3
Track gain : -3.43 dB
Peak : 0.977356
CRC32 hash (test run) : E11526ED
CRC32 hash : E11526ED
CRC32 hash (skip zero) : 4A66EDEB
AccurateRip signature : 59E2AC87
->Accurately ripped! (confidence 2)
Statistics
Read error : 0
Skipped (treated as error) : 0
Edge jitter error (maybe fixed) : 1
Atom jitter error (maybe fixed) : 0
Drift error (maybe fixed) : 0
Dropped bytes error (maybe fixed) : 0
Duplicated bytes error (maybe fixed) : 1
Inconsistency in error sectors : 0
Track 08
Filename : /Users/davidnkarp/Desktop/what.cd/music/Bill McHenry - Roses (2007)/08 - Symphony.m4a
/Users/davidnkarp/Desktop/what.cd/music/Bill McHenry - Roses (2007)/08 - Symphony.flac
/Users/davidnkarp/Desktop/what.cd/music/Bill McHenry - Roses (2007)/08 - Symphony(LAME MP3 (VBR-new quality 0.0)).mp3
/Users/davidnkarp/Desktop/what.cd/music/Bill McHenry - Roses (2007)/08 - Symphony.ogg
/Users/davidnkarp/Desktop/what.cd/music/Bill McHenry - Roses (2007)/08 - Symphony(LAME MP3 (VBR-new quality 2.0)).mp3
Track gain : -5.71 dB
Peak : 0.977325
CRC32 hash (test run) : D41ED1F8
CRC32 hash : D41ED1F8
CRC32 hash (skip zero) : 9DEF9CDA
AccurateRip signature : 0F63D23C
->Accurately ripped! (confidence 2)
Statistics
Read error : 0
Skipped (treated as error) : 0
Edge jitter error (maybe fixed) : 1
Atom jitter error (maybe fixed) : 1
Drift error (maybe fixed) : 0
Dropped bytes error (maybe fixed) : 0
Duplicated bytes error (maybe fixed) : 1
Inconsistency in error sectors : 0
Track 09
Filename : /Users/davidnkarp/Desktop/what.cd/music/Bill McHenry - Roses (2007)/09 - Phoyo-Synthetic.m4a
/Users/davidnkarp/Desktop/what.cd/music/Bill McHenry - Roses (2007)/09 - Phoyo-Synthetic.flac
/Users/davidnkarp/Desktop/what.cd/music/Bill McHenry - Roses (2007)/09 - Phoyo-Synthetic(LAME MP3 (VBR-new quality 0.0)).mp3
/Users/davidnkarp/Desktop/what.cd/music/Bill McHenry - Roses (2007)/09 - Phoyo-Synthetic.ogg
/Users/davidnkarp/Desktop/what.cd/music/Bill McHenry - Roses (2007)/09 - Phoyo-Synthetic(LAME MP3 (VBR-new quality 2.0)).mp3
Pre-gap length : 00:01:47
Track gain : -5.40 dB
Peak : 0.977325
CRC32 hash (test run) : F1654D87
CRC32 hash : F1654D87
CRC32 hash (skip zero) : A1A80C5C
AccurateRip signature : 60361B7B
->Accurately ripped! (confidence 2)
Statistics
Read error : 0
Skipped (treated as error) : 0
Edge jitter error (maybe fixed) : 2
Atom jitter error (maybe fixed) : 1
Drift error (maybe fixed) : 0
Dropped bytes error (maybe fixed) : 0
Duplicated bytes error (maybe fixed) : 1
Inconsistency in error sectors : 0
No errors occurred
End of status report
 
Содержание индексной карты (.CUE)
TITLE "Roses"
PERFORMER "Bill McHenry"
CATALOG 0016728116725
REM GENRE "Jazz"
REM DATE 2007
REM DISCNUMBER 1
REM TOTALDISCS 1
REM DISCID 790B7409
FILE "01 - Roses.wav" WAVE
TRACK 01 AUDIO
TITLE "Roses"
SONGWRITER "Bill McHenry"
ISRC US2W60711671
INDEX 01 00:00:00
FILE "02 - African Song.wav" WAVE
TRACK 02 AUDIO
TITLE "African Song"
SONGWRITER "Bill McHenry"
ISRC US2W60711672
INDEX 01 00:00:00
FILE "03 - The Abyss Open Up.wav" WAVE
TRACK 03 AUDIO
TITLE "The Abyss Open Up"
SONGWRITER "Reid Anderson/Paul Motian/Ben Monder"
ISRC US2W60711673
INDEX 01 00:00:00
FILE "04 - The City.wav" WAVE
TRACK 04 AUDIO
TITLE "The City"
SONGWRITER "Paul Motian/Reid Anderson/Ben Monder"
ISRC US2W60711674
INDEX 01 00:00:00
TRACK 05 AUDIO
TITLE "The New One"
SONGWRITER "Bill McHenry"
ISRC US2W60711675
INDEX 00 03:49:29
FILE "05 - The New One.wav" WAVE
INDEX 01 00:00:00
FILE "06 - The Lizard.wav" WAVE
TRACK 06 AUDIO
TITLE "The Lizard"
SONGWRITER "Bill McHenry"
ISRC US2W60711676
INDEX 01 00:00:00
FILE "07 - Keys Of C.wav" WAVE
TRACK 07 AUDIO
TITLE "Keys Of C"
SONGWRITER "Bill McHenry"
ISRC US2W60711677
INDEX 01 00:00:00
FILE "08 - Symphony.wav" WAVE
TRACK 08 AUDIO
TITLE "Symphony"
SONGWRITER "Bill McHenry"
ISRC US2W60711678
INDEX 01 00:00:00
TRACK 09 AUDIO
TITLE "Phoyo-Synthetic"
SONGWRITER "Bill McHenry"
ISRC US2W60711679
INDEX 00 03:26:10
FILE "09 - Phoyo-Synthetic.wav" WAVE
INDEX 01 00:00:00
По всем вопросам пишите личное сообщение пользователю M0p94ok.
17:37
146
Нет комментариев. Ваш будет первым!