Вы используете незарегистрированную версию компонента "Вкладки"!

Поиск

(Free Jazz / Contemporary Jazz / Hat Hut Records / trombone) R. Anderson, C. Harris, G. Lewis & G. Valente - Slideride - 1995, FLAC (tracks+.cue), lossless

(Free Jazz / Contemporary Jazz / Hat Hut Records / trombone) R. Anderson, C. Harris, G. Lewis & G. Valente - Slideride - 1995, FLAC (tracks+.cue), lossless
Треклист:
R. Anderson, C. Harris, G. Lewis & G. Valente - Slideride
Жанр: Free Jazz / Contemporary Jazz
Страна-производитель диска: Switzerland
Год издания диска: 1995
Издатель (лейбл): Hat Hut Records
Номер по каталогу: hatART 6165
Аудиокодек: FLAC (*.flac)
Тип рипа: tracks+.cue
Битрейт аудио: lossless
Продолжительность: 01:04:28
Источник (релизер): what.cd / спасибо Athenatius
Наличие сканов в содержимом раздачи: да / *.jpg (300 dpi)
Треклист:
1. Sweeps (04:11) by George Lewis
2. Miles (05:53) by Craig Harris
3. Again Raven (05:48) by Ray Anderson
4. Lotus Blossom* (03:53) by Billy Strayhorn
5. The Jeep Is Jumping* (02:22) by Ellington/Hodges
6. Shadowgraph 5 (07:40) by George Lewis
7. Shadow Catchers (07:55) by Craig Harris
8. Unison (08:03) by George Lewis
9. Four Some (07:05) by Ray Anderson
10.Oclupaca* (06:01) by Duke Ellington
11.In Time Out (04:52) by Gary Valente
* arranged by Ray Anderson
Доп. информация:
Slideride:
Ray Anderson - trombone
Craig Harris - trombone
George Lewis - trombone
Gary Valente - trombone
© 1995 Hat Hut Records Ltd.
 
... photo ...
 
Лог создания рипа
Exact Audio Copy V0.99 prebeta 5 from 4. May 2009
EAC extraction logfile from 26. May 2010, 21:41
R. Anderson, C. Harris, G. Lewis, G.Valente / Slideride
Used drive : PHILIPS SPD2414T Adapter: 2 ID: 0
Read mode : Secure
Utilize accurate stream : Yes
Defeat audio cache : Yes
Make use of C2 pointers : No
Read offset correction : 6
Overread into Lead-In and Lead-Out : No
Fill up missing offset samples with silence : Yes
Delete leading and trailing silent blocks : No
Null samples used in CRC calculations : Yes
Used interface : Installed external ASPI interface
Gap handling : Appended to previous track
Used output format : User Defined Encoder
Selected bitrate : 1024 kBit/s
Quality : High
Add ID3 tag : No
Command line compressor : E:\Exact Audio Copy\FLAC\FLAC.EXE
Additional command line options : -V -8 -T "artist=%a" -T "title=%t" -T "album=%g" -T "date=%y" -T "tracknumber=%n" -T "genre=%m" %s
TOC of the extracted CD
Track | Start | Length | Start sector | End sector
---------------------------------------------------------
1 | 0:00.00 | 4:15.62 | 0 | 19186
2 | 4:15.62 | 5:57.00 | 19187 | 45961
3 | 10:12.62 | 5:53.00 | 45962 | 72436
4 | 16:05.62 | 3:58.00 | 72437 | 90286
5 | 20:03.62 | 2:27.00 | 90287 | 101311
6 | 22:30.62 | 7:46.00 | 101312 | 136261
7 | 30:16.62 | 7:59.00 | 136262 | 172186
8 | 38:15.62 | 8:07.00 | 172187 | 208711
9 | 46:22.62 | 7:09.00 | 208712 | 240886
10 | 53:31.62 | 6:05.00 | 240887 | 268261
11 | 59:36.62 | 4:52.13 | 268262 | 290174
Track 1
Filename G:\Muziek\trombone\Jazz & Latin\Ray Anderson\1994 - Slideride(Ray Anderson-Craig Harris-George Lewis-Gary Valente)\01 - Sweeps.wav
Pre-gap length 0:00:02.00
Peak level 92.5 %
Track quality 100.0 %
Test CRC 42188575
Copy CRC 42188575
Accurately ripped (confidence 3) [444E1F53]
Copy OK
Track 2
Filename G:\Muziek\trombone\Jazz & Latin\Ray Anderson\1994 - Slideride(Ray Anderson-Craig Harris-George Lewis-Gary Valente)\02 - Miles.wav
Pre-gap length 0:00:03.62
Peak level 91.7 %
Track quality 100.0 %
Test CRC D07098D6
Copy CRC D07098D6
Accurately ripped (confidence 3) [7B715177]
Copy OK
Track 3
Filename G:\Muziek\trombone\Jazz & Latin\Ray Anderson\1994 - Slideride(Ray Anderson-Craig Harris-George Lewis-Gary Valente)\03 - Again Raven.wav
Pre-gap length 0:00:03.62
Peak level 92.6 %
Track quality 99.9 %
Test CRC 45A2061F
Copy CRC 45A2061F
Accurately ripped (confidence 3) [73874B7D]
Copy OK
Track 4
Filename G:\Muziek\trombone\Jazz & Latin\Ray Anderson\1994 - Slideride(Ray Anderson-Craig Harris-George Lewis-Gary Valente)\04 - Lotus Blossom.wav
Pre-gap length 0:00:04.62
Peak level 50.8 %
Track quality 100.0 %
Test CRC 63571790
Copy CRC 63571790
Accurately ripped (confidence 3) [E20CBCE4]
Copy OK
Track 5
Filename G:\Muziek\trombone\Jazz & Latin\Ray Anderson\1994 - Slideride(Ray Anderson-Craig Harris-George Lewis-Gary Valente)\05 - The Jeep Is Jumping.wav
Pre-gap length 0:00:04.62
Peak level 92.2 %
Track quality 100.0 %
Test CRC 8AC178B2
Copy CRC 8AC178B2
Accurately ripped (confidence 3) [CD26EF6C]
Copy OK
Track 6
Filename G:\Muziek\trombone\Jazz & Latin\Ray Anderson\1994 - Slideride(Ray Anderson-Craig Harris-George Lewis-Gary Valente)\06 - Shadowgraph 5.wav
Pre-gap length 0:00:04.62
Peak level 92.4 %
Track quality 100.0 %
Test CRC EC94C4A9
Copy CRC EC94C4A9
Accurately ripped (confidence 3) [EB11F026]
Copy OK
Track 7
Filename G:\Muziek\trombone\Jazz & Latin\Ray Anderson\1994 - Slideride(Ray Anderson-Craig Harris-George Lewis-Gary Valente)\07 - Shadow Catchers.wav
Pre-gap length 0:00:05.62
Peak level 93.2 %
Track quality 100.0 %
Test CRC 33C679BA
Copy CRC 33C679BA
Accurately ripped (confidence 3) [ABBEFB1C]
Copy OK
Track 8
Filename G:\Muziek\trombone\Jazz & Latin\Ray Anderson\1994 - Slideride(Ray Anderson-Craig Harris-George Lewis-Gary Valente)\08 - Unison.wav
Pre-gap length 0:00:03.62
Peak level 45.9 %
Track quality 100.0 %
Test CRC 7F3BCDBD
Copy CRC 7F3BCDBD
Accurately ripped (confidence 2) [19A139A6]
Copy OK
Track 9
Filename G:\Muziek\trombone\Jazz & Latin\Ray Anderson\1994 - Slideride(Ray Anderson-Craig Harris-George Lewis-Gary Valente)\09 - Four Some.wav
Pre-gap length 0:00:03.62
Peak level 92.4 %
Track quality 99.9 %
Test CRC C3F397ED
Copy CRC C3F397ED
Accurately ripped (confidence 2) [56FB9A5F]
Copy OK
Track 10
Filename G:\Muziek\trombone\Jazz & Latin\Ray Anderson\1994 - Slideride(Ray Anderson-Craig Harris-George Lewis-Gary Valente)\10 - Oclupaca.wav
Pre-gap length 0:00:03.62
Peak level 92.1 %
Track quality 100.0 %
Test CRC F9D6B4F7
Copy CRC F9D6B4F7
Accurately ripped (confidence 3) [400D08E4]
Copy OK
Track 11
Filename G:\Muziek\trombone\Jazz & Latin\Ray Anderson\1994 - Slideride(Ray Anderson-Craig Harris-George Lewis-Gary Valente)\11 - In Time Out.wav
Pre-gap length 0:00:03.62
Peak level 92.3 %
Track quality 100.0 %
Test CRC BFD69D95
Copy CRC BFD69D95
Accurately ripped (confidence 3) [BE37317E]
Copy OK
All tracks accurately ripped
No errors occurred
End of status report
 
Содержание индексной карты (.CUE)
REM GENRE Jazz
REM DATE 1995
REM DISCID 9F0F1D0B
REM COMMENT "ExactAudioCopy v0.99pb5"
PERFORMER "R. Anderson, C. Harris, G. Lewis, G.Valente"
TITLE "Slideride"
FILE "01 - Sweeps.wav" WAVE
TRACK 01 AUDIO
TITLE "Sweeps"
PERFORMER "R. Anderson, C. Harris, G. Lewis, G.Valente"
INDEX 01 00:00:00
TRACK 02 AUDIO
TITLE "Miles"
PERFORMER "R. Anderson, C. Harris, G. Lewis, G.Valente"
INDEX 00 04:12:00
FILE "02 - Miles.wav" WAVE
INDEX 01 00:00:00
TRACK 03 AUDIO
TITLE "Again Raven"
PERFORMER "R. Anderson, C. Harris, G. Lewis, G.Valente"
INDEX 00 05:53:13
FILE "03 - Again Raven.wav" WAVE
INDEX 01 00:00:00
TRACK 04 AUDIO
TITLE "Lotus Blossom"
PERFORMER "R. Anderson, C. Harris, G. Lewis, G.Valente"
INDEX 00 05:48:13
FILE "04 - Lotus Blossom.wav" WAVE
INDEX 01 00:00:00
TRACK 05 AUDIO
TITLE "The Jeep Is Jumping"
PERFORMER "R. Anderson, C. Harris, G. Lewis, G.Valente"
INDEX 00 03:53:13
FILE "05 - The Jeep Is Jumping.wav" WAVE
INDEX 01 00:00:00
TRACK 06 AUDIO
TITLE "Shadowgraph 5"
PERFORMER "R. Anderson, C. Harris, G. Lewis, G.Valente"
INDEX 00 02:22:13
FILE "06 - Shadowgraph 5.wav" WAVE
INDEX 01 00:00:00
TRACK 07 AUDIO
TITLE "Shadow Catchers"
PERFORMER "R. Anderson, C. Harris, G. Lewis, G.Valente"
INDEX 00 07:40:13
FILE "07 - Shadow Catchers.wav" WAVE
INDEX 01 00:00:00
TRACK 08 AUDIO
TITLE "Unison"
PERFORMER "R. Anderson, C. Harris, G. Lewis, G.Valente"
INDEX 00 07:55:13
FILE "08 - Unison.wav" WAVE
INDEX 01 00:00:00
TRACK 09 AUDIO
TITLE "Four Some"
PERFORMER "R. Anderson, C. Harris, G. Lewis, G.Valente"
INDEX 00 08:03:13
FILE "09 - Four Some.wav" WAVE
INDEX 01 00:00:00
TRACK 10 AUDIO
TITLE "Oclupaca"
PERFORMER "R. Anderson, C. Harris, G. Lewis, G.Valente"
INDEX 00 07:05:13
FILE "10 - Oclupaca.wav" WAVE
INDEX 01 00:00:00
TRACK 11 AUDIO
TITLE "In Time Out"
PERFORMER "R. Anderson, C. Harris, G. Lewis, G.Valente"
INDEX 00 06:01:13
FILE "11 - In Time Out.wav" WAVE
INDEX 01 00:00:00
 
Audiochecker 2.0 beta (build 457)
AUDIOCHECKER v2.0 beta (build 457) - by Dester - opdester@freemail.hu
~~~~~~~~~~~~~~~~~~~~~~~~~~~~~~~~~~
Started at: четверг, 20. 10. 2011. - 22:42.32
11 files found
01 -===- G:\TORRENTS.ru_Audio CD\#100_R.Anderson, C.Harris, G.Lewis & G.Valente - Slideride (1995)\R.Anderson, C.Harris, G.Lewis & G.Valente - Slideride (1995)\01 - Sweeps.flac
Extracted successfully
Conclusion: this track is CDDA with probability 100%
Tempfile successfully deleted.
02 -===- G:\TORRENTS.ru_Audio CD\#100_R.Anderson, C.Harris, G.Lewis & G.Valente - Slideride (1995)\R.Anderson, C.Harris, G.Lewis & G.Valente - Slideride (1995)\02 - Miles.flac
Extracted successfully
Conclusion: this track is CDDA with probability 99%
Tempfile successfully deleted.
03 -===- G:\TORRENTS.ru_Audio CD\#100_R.Anderson, C.Harris, G.Lewis & G.Valente - Slideride (1995)\R.Anderson, C.Harris, G.Lewis & G.Valente - Slideride (1995)\03 - Again Raven.flac
Extracted successfully
Conclusion: this track is CDDA with probability 100%
Tempfile successfully deleted.
04 -===- G:\TORRENTS.ru_Audio CD\#100_R.Anderson, C.Harris, G.Lewis & G.Valente - Slideride (1995)\R.Anderson, C.Harris, G.Lewis & G.Valente - Slideride (1995)\04 - Lotus Blossom.flac
Extracted successfully
Conclusion: this track is CDDA with probability 100%
Tempfile successfully deleted.
05 -===- G:\TORRENTS.ru_Audio CD\#100_R.Anderson, C.Harris, G.Lewis & G.Valente - Slideride (1995)\R.Anderson, C.Harris, G.Lewis & G.Valente - Slideride (1995)\05 - The Jeep Is Jumping.flac
Extracted successfully
Conclusion: this track is CDDA with probability 100%
Tempfile successfully deleted.
06 -===- G:\TORRENTS.ru_Audio CD\#100_R.Anderson, C.Harris, G.Lewis & G.Valente - Slideride (1995)\R.Anderson, C.Harris, G.Lewis & G.Valente - Slideride (1995)\06 - Shadowgraph 5.flac
Extracted successfully
Conclusion: this track is CDDA with probability 99%
Tempfile successfully deleted.
07 -===- G:\TORRENTS.ru_Audio CD\#100_R.Anderson, C.Harris, G.Lewis & G.Valente - Slideride (1995)\R.Anderson, C.Harris, G.Lewis & G.Valente - Slideride (1995)\07 - Shadow Catchers.flac
Extracted successfully
Conclusion: this track is CDDA with probability 100%
Tempfile successfully deleted.
08 -===- G:\TORRENTS.ru_Audio CD\#100_R.Anderson, C.Harris, G.Lewis & G.Valente - Slideride (1995)\R.Anderson, C.Harris, G.Lewis & G.Valente - Slideride (1995)\08 - Unison.flac
Extracted successfully
Conclusion: this track is CDDA with probability 99%
Tempfile successfully deleted.
09 -===- G:\TORRENTS.ru_Audio CD\#100_R.Anderson, C.Harris, G.Lewis & G.Valente - Slideride (1995)\R.Anderson, C.Harris, G.Lewis & G.Valente - Slideride (1995)\09 - Four Some.flac
Extracted successfully
Conclusion: this track is CDDA with probability 100%
Tempfile successfully deleted.
10 -===- G:\TORRENTS.ru_Audio CD\#100_R.Anderson, C.Harris, G.Lewis & G.Valente - Slideride (1995)\R.Anderson, C.Harris, G.Lewis & G.Valente - Slideride (1995)\10 - Oclupaca.flac
Extracted successfully
Conclusion: this track is CDDA with probability 100%
Tempfile successfully deleted.
11 -===- G:\TORRENTS.ru_Audio CD\#100_R.Anderson, C.Harris, G.Lewis & G.Valente - Slideride (1995)\R.Anderson, C.Harris, G.Lewis & G.Valente - Slideride (1995)\11 - In Time Out.flac
Extracted successfully
Conclusion: this track is CDDA with probability 100%
Tempfile successfully deleted.
Finished at: четверг, 20. 10. 2011. - 22:50.08 (operation time: 0:07.36)
По всем вопросам пишите личное сообщение пользователю M0p94ok.
17:39
180
Нет комментариев. Ваш будет первым!