Вы используете незарегистрированную версию компонента "Вкладки"!

Поиск

(Free Jazz, Avant-Garde) Alice Coltrane - The Impulse Story - 2006, FLAC (image+.cue), lossless

Треклист:
Alice Coltrane - The Impulse Story
Жанр: Free Jazz, Avant-Garde
Год выпуска диска: 2006
Производитель диска: Украина (лицензия)
Лейбл: The Verve Music Group
Аудио кодек: FLAC
Тип рипа: image+.cue
Битрейт аудио: lossless
Продолжительность: 58:51
Трэклист:
1. The Sun 4:01
2. Lovely Sky Boat 6:51
3. Jaya Jaya Rama 6:25
4. Ptah, The El Daoud 13:58
5. Journey In Satchidananda 6:35
6. Universal Consciousness 5:02
7. Excerpts From The Firebird 5:42
8. Translinear Light 9:50
Доп. информация: Этот сборник “импульсовской” серии “The Impulse Story” представляет записи Эллис Колтрейн. Эллис сменила в ансамбле своего легендарного супруга самого Маккоя Тайнера и проработала с Колтрейном до самой его смерти, став участницей самых радикальных, самых новаторских его проектов на долгие годы определивших направление поисков многих джазовых музыкантов. После трагичной смерти Джона она записала несколько сольных работ, изданных на «Impulse!», которые вполне убедительно продемонстрировали, что и без своего супруга она представляет собой вполне самостоятельную и интересную творческую единицу, интересно экспериментирующую со смешением авангардного джаза с восточно-азиатской музыкой.
Элис играет то на рояле, то на органе Wurlitzer, то обволакивающими звуковыми полотнами звучит ее арфа. Очень приличный состав музыкантов – это Pharoah Sanders, Ron Carter, Joe Henderson, Charlie Haden. В последнем трэке, неожиданно форматно вписывающемся в бескомпромиссный авангард начала 70-х и представляющем альбом 2000 года, на саксофоне играет сын Джона и Эллис Рави Колтрэйн, на ударных Jack DeJohnette.
 
Отчет EAC
Exact Audio Copy V0.99 prebeta 5 from 4. May 2009
EAC extraction logfile from 9. September 2009, 15:28
Alice Coltrane / The Impulse Story
Used drive : HL-DT-STDVD-RAM GSA-H55N Adapter: 4 ID: 0
Read mode : Secure
Utilize accurate stream : Yes
Defeat audio cache : Yes
Make use of C2 pointers : No
Read offset correction : 102
Overread into Lead-In and Lead-Out : No
Fill up missing offset samples with silence : Yes
Delete leading and trailing silent blocks : No
Null samples used in CRC calculations : Yes
Used interface : Native Win32 interface for Win NT & 2000
Used output format : User Defined Encoder
Selected bitrate : 768 kBit/s
Quality : High
Add ID3 tag : No
Command line compressor : C:\Program Files\Exact Audio Copy\FLAC\FLAC.EXE
Additional command line options : -8 -V -T "ARTIST=%a" -T "TITLE=%t" -T "ALBUM=%g" -T "DATE=%y" -T "TRACKNUMBER=%n" -T "GENRE=%m" -T "COMMENT=%e" %s -o %d
TOC of the extracted CD
Track | Start | Length | Start sector | End sector
---------------------------------------------------------
1 | 0:00.00 | 4:04.54 | 0 | 18353
2 | 4:04.54 | 6:54.31 | 18354 | 49434
3 | 10:59.10 | 6:28.63 | 49435 | 78597
4 | 17:27.73 | 14:02.38 | 78598 | 141785
5 | 31:30.36 | 6:39.22 | 141786 | 171732
6 | 38:09.58 | 5:05.24 | 171733 | 194631
7 | 43:15.07 | 5:45.04 | 194632 | 220510
8 | 49:00.11 | 9:49.50 | 220511 | 264735
Range status and errors
Selected range
Filename D:\Олег\Мои раздачи\Alice Coltrane - The Impulse Story.wav
Peak level 100.0 %
Range quality 99.9 %
Test CRC D5E22D28
Copy CRC D5E22D28
Copy OK
No errors occurred
End of status report
Any questions -> support@pro-jazz.com. По всем вопросам пишите -> support@pro-jazz.com
14:31
297
Нет комментариев. Ваш будет первым!