Вы используете незарегистрированную версию компонента "Вкладки"!

Поиск

(Avant-Garde Jazz) Brinsk - A Hamster Speaks - 2008, FLAC (tracks+.cue), lossless

(Avant-Garde Jazz) Brinsk - A Hamster Speaks - 2008, FLAC (tracks+.cue), lossless
Треклист:
Brinsk - A Hamster Speaks
Жанр: Avant-Garde Jazz
Страна-производитель диска: USA
Год издания: 2008
Издатель (лейбл): Nowt Records
Номер по каталогу: NOWT-001
Аудиокодек: FLAC (*.flac)
Тип рипа: tracks+.cue
Битрейт аудио: lossless
Продолжительность: 01:08:58
Источник (релизер): собственный рип с оригинального Audio CD
Наличие сканов в содержимом раздачи: да
Трэклист:
1. Svensfagel (05:16)
2. Soul Devoured (06:47)
3. Andy (05:01)
4. Mrs. Zurne (06:59)
5. Torn (06:58)
6. Master (05:15)
7. The Gun I Used To Use (05:02)
8. A Hamster Speaks - Bass Prelude (02:22)
9. A Hamster Speaks (04:30)
10. Laser Eyes (07:14)
11. One (05:06)
12. Wet Blanket (02:28)
13. ADF Signal (06:51)
All Songs Composed by Aryeh Kobrinsky
Доп. информация:
Musicians:
Jacob Wick - trumpet
Evan Smith - tenor saxophone
Adam Dotson - euphonium
Jason Nazary - drums
Aryeh Kobrinsky - bass
Except 4, 7, 10, 12 Composed by Aryeh Kobrinsky, Jason Nazary, Jacob Wick, Evan Smith, and Adam Dotson (SOCAN)
Recorded by Tim Gowdy at Studio Frisson in Montreal, October 26-27, 2007
Illustrations by William Block / Color and Design by Raul Gomez
Brinsk - A Hamster Speaks allaboutjazz.com
Brinsk - A Hamster Speaks concertlivewire.com
Brinsk - A Hamster Speaks jazz.com
 
... photo ...
 
... back ...
 
... illustrations by William Block ...

 
EAC / evidence
 
EAC extraction logfile from 1. March 2013, 11:15
Exact Audio Copy V1.0 beta 3 from 29. August 2011
EAC extraction logfile from 1. March 2013, 11:15
Brinsk / A Hamster Speaks
Used drive : Optiarc DVD RW AD-7260S Adapter: 2 ID: 0
Read mode : Secure
Utilize accurate stream : Yes
Defeat audio cache : Yes
Make use of C2 pointers : No
Read offset correction : 48
Overread into Lead-In and Lead-Out : No
Fill up missing offset samples with silence : Yes
Delete leading and trailing silent blocks : No
Null samples used in CRC calculations : Yes
Used interface : Native Win32 interface for Win NT & 2000
Gap handling : Appended to previous track
Used output format : User Defined Encoder
Selected bitrate : 128 kBit/s
Quality : High
Add ID3 tag : No
Command line compressor : C:\Program Files\Exact Audio Copy\Flac\flac.exe
Additional command line options : -V -8 -T "Genre=%genre%" -T "Artist=%artist%" -T "Title=%title%" -T "Album=%albumtitle%" -T "Date=%year%" -T "Tracknumber=%tracknr%" -T "Comment=%comment%" %source%
TOC of the extracted CD
Track | Start | Length | Start sector | End sector
---------------------------------------------------------
1 | 0:00.00 | 5:16.68 | 0 | 23767
2 | 5:16.68 | 6:47.03 | 23768 | 54295
3 | 12:03.71 | 5:00.68 | 54296 | 76863
4 | 17:04.64 | 6:58.27 | 76864 | 108240
5 | 24:03.16 | 6:57.74 | 108241 | 139589
6 | 31:01.15 | 5:15.31 | 139590 | 163245
7 | 36:16.46 | 5:01.31 | 163246 | 185851
8 | 41:18.02 | 2:22.45 | 185852 | 196546
9 | 43:40.47 | 4:30.13 | 196547 | 216809
10 | 48:10.60 | 7:14.05 | 216810 | 249364
11 | 55:24.65 | 5:05.51 | 249365 | 272290
12 | 60:30.41 | 2:28.30 | 272291 | 283420
13 | 62:58.71 | 6:50.59 | 283421 | 314229
Track 1
Filename E:\rip by readab\Brinsk - A Hamster Speaks (2008)\01 - Svensfagel.wav
Pre-gap length 0:00:02.00
Peak level 92.2 %
Extraction speed 2.5 X
Track quality 100.0 %
Test CRC 11DA6F48
Copy CRC 11DA6F48
Accurately ripped (confidence 1) [60B333F5] (AR v1)
Copy OK
Track 2
Filename E:\rip by readab\Brinsk - A Hamster Speaks (2008)\02 - Soul Devoured.wav
Pre-gap length 0:00:07.60
Peak level 92.4 %
Extraction speed 2.8 X
Track quality 99.9 %
Test CRC BBE8781A
Copy CRC BBE8781A
Accurately ripped (confidence 1) [E09B87D9] (AR v1)
Copy OK
Track 3
Filename E:\rip by readab\Brinsk - A Hamster Speaks (2008)\03 - Andy.wav
Pre-gap length 0:00:06.00
Peak level 88.3 %
Extraction speed 3.2 X
Track quality 100.0 %
Test CRC D17D31A6
Copy CRC D17D31A6
Accurately ripped (confidence 1) [873D7E0D] (AR v1)
Copy OK
Track 4
Filename E:\rip by readab\Brinsk - A Hamster Speaks (2008)\04 - Mrs. Zurne.wav
Pre-gap length 0:00:06.00
Peak level 100.0 %
Extraction speed 3.7 X
Track quality 100.0 %
Test CRC E6DFF9D2
Copy CRC E6DFF9D2
Accurately ripped (confidence 1) [D2AC6340] (AR v1)
Copy OK
Track 5
Filename E:\rip by readab\Brinsk - A Hamster Speaks (2008)\05 - Torn.wav
Pre-gap length 0:00:01.58
Peak level 94.4 %
Extraction speed 3.7 X
Track quality 99.9 %
Test CRC 761C430C
Copy CRC 761C430C
Accurately ripped (confidence 1) [75479D2C] (AR v1)
Copy OK
Track 6
Filename E:\rip by readab\Brinsk - A Hamster Speaks (2008)\06 - Master.wav
Pre-gap length 0:00:05.37
Peak level 92.6 %
Extraction speed 3.7 X
Track quality 99.9 %
Test CRC EB70523F
Copy CRC EB70523F
Accurately ripped (confidence 1) [C83D3FFC] (AR v1)
Copy OK
Track 7
Filename E:\rip by readab\Brinsk - A Hamster Speaks (2008)\07 - The Gun I Used To Use.wav
Pre-gap length 0:00:04.42
Peak level 97.4 %
Extraction speed 3.9 X
Track quality 99.9 %
Test CRC E1395059
Copy CRC E1395059
Accurately ripped (confidence 1) [53951F95] (AR v1)
Copy OK
Track 8
Filename E:\rip by readab\Brinsk - A Hamster Speaks (2008)\08 - A Hamster Speaks - Bass Prelude.wav
Pre-gap length 0:00:04.00
Peak level 45.3 %
Extraction speed 4.0 X
Track quality 100.0 %
Test CRC 0D356B2D
Copy CRC 0D356B2D
Accurately ripped (confidence 1) [6AC8B446] (AR v1)
Copy OK
Track 9
Filename E:\rip by readab\Brinsk - A Hamster Speaks (2008)\09 - A Hamster Speaks.wav
Peak level 92.9 %
Extraction speed 4.5 X
Track quality 100.0 %
Test CRC EE9407B6
Copy CRC EE9407B6
Accurately ripped (confidence 1) [33384F3E] (AR v1)
Copy OK
Track 10
Filename E:\rip by readab\Brinsk - A Hamster Speaks (2008)\10 - Laser Eyes.wav
Pre-gap length 0:00:04.43
Peak level 96.6 %
Extraction speed 5.0 X
Track quality 100.0 %
Test CRC 88DBA411
Copy CRC 88DBA411
Accurately ripped (confidence 1) [7D0E07EA] (AR v1)
Copy OK
Track 11
Filename E:\rip by readab\Brinsk - A Hamster Speaks (2008)\11 - One.wav
Pre-gap length 0:00:03.16
Peak level 94.4 %
Extraction speed 5.0 X
Track quality 100.0 %
Test CRC BF89CBB1
Copy CRC BF89CBB1
Cannot be verified as accurate (confidence 1) [73501586], AccurateRip returned [B723D643] (AR v2)
Copy OK
Track 12
Filename E:\rip by readab\Brinsk - A Hamster Speaks (2008)\12 - Wet Blanket.wav
Pre-gap length 0:00:03.60
Peak level 95.1 %
Extraction speed 3.8 X
Track quality 99.9 %
Test CRC 49BD1B05
Copy CRC 49BD1B05
Cannot be verified as accurate (confidence 1) [47BF6D46], AccurateRip returned [AAE2230F] (AR v2)
Copy OK
Track 13
Filename E:\rip by readab\Brinsk - A Hamster Speaks (2008)\13 - ADF Signal.wav
Pre-gap length 0:00:03.73
Peak level 93.7 %
Extraction speed 5.5 X
Track quality 100.0 %
Test CRC 4C53D10C
Copy CRC 4C53D10C
Cannot be verified as accurate (confidence 1) [9FE2DF78], AccurateRip returned [7E577CC7] (AR v2)
Copy OK
10 track(s) accurately ripped
3 track(s) could not be verified as accurate
Some tracks could not be verified as accurate
No errors occurred
End of status report
==== Log checksum 2F14A1AF9611A20DA2EA56493CB565E37A64576EAE26447A29AE54A3CD8202CE ====
 
Содержание индексной карты (.CUE)
REM GENRE Jazz
REM DATE 2008
REM DISCID B4105D0D
REM COMMENT "ExactAudioCopy v1.0b3"
PERFORMER " Brinsk"
TITLE "A Hamster Speaks"
FILE "01 - Svensfagel.wav" WAVE
TRACK 01 AUDIO
TITLE "Svensfagel"
PERFORMER "Brinsk"
ISRC USN3U0800001
INDEX 01 00:00:00
TRACK 02 AUDIO
TITLE "Soul Devoured "
PERFORMER "Brinsk"
ISRC USN3U0800002
INDEX 00 05:09:08
FILE "02 - Soul Devoured.wav" WAVE
INDEX 01 00:00:00
TRACK 03 AUDIO
TITLE "Andy"
PERFORMER "Brinsk"
ISRC USN3U0800003
INDEX 00 06:41:03
FILE "03 - Andy.wav" WAVE
INDEX 01 00:00:00
TRACK 04 AUDIO
TITLE "Mrs. Zurne"
PERFORMER "Brinsk"
ISRC USN3U0800004
INDEX 00 04:54:68
FILE "04 - Mrs. Zurne.wav" WAVE
INDEX 01 00:00:00
TRACK 05 AUDIO
TITLE "Torn"
PERFORMER "Brinsk"
ISRC USN3U0800005
INDEX 00 06:56:44
FILE "05 - Torn.wav" WAVE
INDEX 01 00:00:00
TRACK 06 AUDIO
TITLE "Master"
PERFORMER "Brinsk"
ISRC USN3U0800006
INDEX 00 06:52:37
FILE "06 - Master.wav" WAVE
INDEX 01 00:00:00
TRACK 07 AUDIO
TITLE "The Gun I Used To Use"
PERFORMER "Brinsk"
ISRC USN3U0800007
INDEX 00 05:10:64
FILE "07 - The Gun I Used To Use.wav" WAVE
INDEX 01 00:00:00
TRACK 08 AUDIO
TITLE "A Hamster Speaks - Bass Prelude"
PERFORMER "Brinsk"
ISRC USN3U0800008
INDEX 00 04:57:31
FILE "08 - A Hamster Speaks - Bass Prelude.wav" WAVE
INDEX 01 00:00:00
FILE "09 - A Hamster Speaks.wav" WAVE
TRACK 09 AUDIO
TITLE "A Hamster Speaks"
PERFORMER "Brinsk"
ISRC USN3U0800009
INDEX 01 00:00:00
TRACK 10 AUDIO
TITLE "Laser Eyes"
PERFORMER "Brinsk"
ISRC USN3U0800010
INDEX 00 04:25:45
FILE "10 - Laser Eyes.wav" WAVE
INDEX 01 00:00:00
TRACK 11 AUDIO
TITLE "One"
PERFORMER "Brinsk"
ISRC USN3U0800011
INDEX 00 07:10:64
FILE "11 - One.wav" WAVE
INDEX 01 00:00:00
TRACK 12 AUDIO
TITLE "Wet Blanket"
PERFORMER "Brinsk"
ISRC USN3U0800012
INDEX 00 05:01:66
FILE "12 - Wet Blanket.wav" WAVE
INDEX 01 00:00:00
TRACK 13 AUDIO
TITLE "ADF Signal"
PERFORMER "Brinsk"
ISRC USN3U0800013
INDEX 00 02:24:32
FILE "13 - ADF Signal.wav" WAVE
INDEX 01 00:00:00
Any questions -> support@pro-jazz.com. По всем вопросам пишите -> support@pro-jazz.com
14:31
193
Нет комментариев. Ваш будет первым!