Поиск

(Post-Bop, Free Jazz, Avant-Garde) VA The Phillip Wilson Project (William Parker, Lester Bowie, Bill Laswel,James Carter...) - 2001, FLAC (image+.cue), lossless

(Post-Bop, Free Jazz, Avant-Garde) VA The Phillip Wilson Project (William Parker, Lester Bowie, Bill Laswel,James Carter...) - 2001, FLAC (image+.cue), lossless
Треклист:
The Phillip Wilson Project
Жанр: Post-Bop, Free Jazz, Avant-Garde
Год выпуска диска: 2001
Производитель диска: JazzDoor
Аудио кодек: FLAC
Тип рипа: image+.cue
Битрейт аудио: lossless
Продолжительность: 41:49
Трэклист:
1 Cool [#] 7:15
2 Philadelphia [#] 9:26
3 Inappropriate Choices 4:48
4 El Haz Malik Shabazz 4:33
5 Steel and Breath [#] 5:54
6 Baliphone Dub 4:29
7 Gammatron 5:22
Состав:
William Parker Bass
Phillip Wilson Drums
Lester Bowie Trumpet
James Carter Sax (Alto), Sax (Baritone)
Jonas Hellborg Bass
Bill Laswell Dmx
Frank Lowe Sax (Tenor)
Michael Marcus Sax (Alto)
Rob Stevens Piano
Carlos Ward Flute, Sax (Alto)
Проект был задуман как посвящение Phillip Willson, убитому на улицах Нью Йорка в 1992г. в возрасте 50 лет.
Альбом представляет собою компиляцию записей с его участием.
All Music Guide
 
EAC Log
Exact Audio Copy V0.99 prebeta 5 from 4. May 2009
EAC extraction logfile from 8. September 2009, 23:53
The Phillip Wilson Project / Golden Jazz Hits
Used drive : Optiarc DVD RW AD-7543A Adapter: 2 ID: 0
Read mode : Secure
Utilize accurate stream : Yes
Defeat audio cache : Yes
Make use of C2 pointers : No
Read offset correction : 48
Overread into Lead-In and Lead-Out : No
Fill up missing offset samples with silence : Yes
Delete leading and trailing silent blocks : No
Null samples used in CRC calculations : Yes
Used interface : Native Win32 interface for Win NT & 2000
Used output format : Internal WAV Routines
Sample format : 44.100 Hz; 16 Bit; Stereo
TOC of the extracted CD
Track | Start | Length | Start sector | End sector
---------------------------------------------------------
1 | 0:00.00 | 7:15.00 | 0 | 32624
2 | 7:15.00 | 9:26.22 | 32625 | 75096
3 | 16:41.22 | 4:48.60 | 75097 | 96756
4 | 21:30.07 | 4:33.68 | 96757 | 117299
5 | 26:04.00 | 5:54.30 | 117300 | 143879
6 | 31:58.30 | 4:29.07 | 143880 | 164061
7 | 36:27.37 | 5:22.35 | 164062 | 188246
Range status and errors
Selected range
Filename Z:\home\igo\eac\CDImage.wav
Peak level 97.0 %
Range quality 100.0 %
Copy CRC CD1BEE5E
Copy OK
No errors occurred
AccurateRip summary
Track 1 cannot be verified as accurate (confidence 2) [8E65BBA6], AccurateRip returned [1F853F9C]
Track 2 cannot be verified as accurate (confidence 2) [EC65C730], AccurateRip returned [7CA6883A]
Track 3 cannot be verified as accurate (confidence 2) [10507BA5], AccurateRip returned [7271AC2D]
Track 4 cannot be verified as accurate (confidence 2) [4FA38F59], AccurateRip returned [17FCE039]
Track 5 cannot be verified as accurate (confidence 2) [012D81A5], AccurateRip returned [11566271]
Track 6 cannot be verified as accurate (confidence 2) [E88248BC], AccurateRip returned [F3A48234]
Track 7 cannot be verified as accurate (confidence 2) [24301E46], AccurateRip returned [07776680]
No tracks could be verified as accurate
You may have a different pressing from the one(s) in the database
End of status report
!!! DownBeat (Самый авторитетный джазовый журнал, 12 номеров)[PDF] !!!
Приватный:
Нет (DHT включён)
Размер:
220.85 Мб (231,583,140 байт) » файлов: 8
Участники:
0 раздают, 0 качают (0 участников всего)
Внешние участники:
2 раздают, 1 качают (3 участников всего) [ Обновить ]
For power users only: no seeders - write to support@pro-jazz.com. Для power user: нет сидеров - пишите на support@pro-jazz.com.
14:30
177
Нет комментариев. Ваш будет первым!