Вы используете незарегистрированную версию компонента "Вкладки"!

Поиск

(Free Jazz, Avant-Garde) Albert Ayler, Don Cherry, John Tchicai, Roswell Rudd, Gary Peacock, Sunny Murray - New York Eye And Ear Control - 1964, APE (image+.cue), lossless

(Free Jazz, Avant-Garde) Albert Ayler, Don Cherry, John Tchicai, Roswell Rudd, Gary Peacock, Sunny Murray - New York Eye And Ear Control - 1964, APE (image+.cue), lossless
Треклист:
Albert Ayler, Don Cherry, John Tchicai, Roswell Rudd, Gary Peacock, Sunny Murray
Жанр: Free Jazz, Avant-Garde
Год выпуска диска: 1964
Производитель диска: ESP 1016
Аудио кодек: APE
Тип рипа: image+.cue
Битрейт аудио: lossless
Продолжительность: 43:21
Трэклист:
1. Don's Dawn 1:03
2. A Y 21:21
3. ITT 23:23
Albert Ayler — Sax (Tenor)
John Tchicai — Saxophone, Sax (Alto)
Don Cherry — Trumpet, Cornet
Roswell Rudd — Trombone
Gary Peacock — Bass
Sunny Murray — Drums
Доп. информация:
 
скрытый текст
"This is a very interesting set, music that was freely improvised and used as the soundtrack for the 34-minute short film New York Eye and Ear Control. Tenor saxophonist Albert Ayler leads the all-star sextet (which also includes trumpeter Don Cherry, altoist John Tchicai, trombonist Roswell Rudd, bassist Gary Peacock and drummer Sunny Murray) on two lengthy jams. The music is fiery but with enough colorful moments to hold one's interest throughout. "
 
EAC extraction logfile
Exact Audio Copy V0.99 prebeta 4 from 23. January 2008
EAC extraction logfile from 13. August 2009, 23:58
Ayler-Cherry-Tchicai-Rudd-Peacock-Murray / New York Eye And Ear Control
Used drive : HL-DT-STRW/DVD GCC-4242N Adapter: 1 ID: 0
Read mode : Secure
Utilize accurate stream : Yes
Defeat audio cache : Yes
Make use of C2 pointers : No
Read offset correction : 102
Overread into Lead-In and Lead-Out : No
Fill up missing offset samples with silence : Yes
Delete leading and trailing silent blocks : No
Null samples used in CRC calculations : Yes
Used interface : Native Win32 interface for Win NT & 2000
Used output format : Internal WAV Routines
Sample format : 44.100 Hz; 16 Bit; Stereo
TOC of the extracted CD
Track | Start | Length | Start sector | End sector
---------------------------------------------------------
1 | 0:00.15 | 0:59.10 | 15 | 4449
2 | 0:59.25 | 20:17.08 | 4450 | 95732
3 | 21:16.33 | 22:05.04 | 95733 | 195111
Range status and errors
Selected range
Filename C:\_\EAC_Out\Out\Ayler-Cherry-Tchicai-Rudd-Peacock-Murray - New York Eye And Ear Control\Ayler-Cherry-Tchicai-Rudd-Peacock-Murray - New York Eye And Ear Control.wav
Peak level 94.3 %
Range quality 100.0 %
Copy CRC 1506D24E
Copy OK
No errors occurred
AccurateRip summary
Track 1 accurately ripped (confidence 1) [DA110B8D]
Track 2 accurately ripped (confidence 1) [994F0BCE]
Track 3 accurately ripped (confidence 1) [56D25624]
All tracks accurately ripped
End of status report
правильный рип в отличии от этого http://rutracker.org/forum/viewtopic.php?t=1527137
По всем вопросам пишите личное сообщение пользователю M0p94ok.
17:38
304
Нет комментариев. Ваш будет первым!