Вы используете незарегистрированную версию компонента "Вкладки"!

Поиск

(Avant-Garde / Free Improvisation) Sonore (Ken Vandermark / Mats Gustafson / Peter Brötzmann) - Call Before You Dig - 2009, FLAC (image+.cue), lossless

Треклист:
Sonore (Ken Vandermark / Mats Gustafson / Peter Brötzmann) - Call Before You Dig
Жанр: Avant-Garde / Free Improvisation
Год выпуска диска: 2009
Производитель диска: USA ( Okkadisk 12083)
Аудио кодек: FLAC
Тип рипа: image+.cue
Битрейт аудио: lossless
Продолжительность: 2:12:55
Ken Vandermark tenor and baritone saxophones, b-flat clarinet, bass clarinet
Mats Gustafson tenor and baritone saxophones, flutophone
Peter Brötzmann alto, tenor and bass saxophones, tarogato, b-flat clarinet
Disc One
1. The Cliff
2. Mountains of Love
3. Snake-Horn
4. Unrecognized Reflections
5. Charged by the Pound
6. Mailbox for an Attic
7. Call Before You Dig
Disc Two
1. The Ravens Cry at Dawn
2. Better a Bird Than a Cow
3. Human Fact
4. Iranic / J.Guiffre
5. A Letter from the Past
6. The Bitter the Better
7. The Longer the Lieber
8. Birds of the Underworld
9. Waiting for the Dancing Bear
10. A Dyed String
11. Hellpig
12. Zipper Backwards
13. Dark Cloud Blues
14. Blue Stone
15. Hardline Drawing
16. Rat Bag
17. Hard To Believe But Good To Know
Disc One was recorded in concert on December 12, 2008.
Disc Two was recorded in the studio on December 13, 2008.

 
EAC Report (Disc 1)
Exact Audio Copy V0.99 prebeta 5 from 4. May 2009
EAC extraction logfile from 22. December 2009, 22:33
Sonore / Call Before You Dig (Disc 1)
Used drive : hp DVD-RAM GH40L Adapter: 0 ID: 1
Read mode : Secure
Utilize accurate stream : Yes
Defeat audio cache : Yes
Make use of C2 pointers : No
Read offset correction : 667
Overread into Lead-In and Lead-Out : No
Fill up missing offset samples with silence : Yes
Delete leading and trailing silent blocks : No
Null samples used in CRC calculations : Yes
Used interface : Installed external ASPI interface
Used output format : User Defined Encoder
Selected bitrate : 1024 kBit/s
Quality : High
Add ID3 tag : No
Command line compressor : C:\Program Files\Exact Audio Copy\Flac\flac.exe
Additional command line options : -6 -V -T "ARTIST=%a" -T "TITLE=%t" -T "ALBUM=%g" -T "DATE=%y" -T "TRACKNUMBER=%n" -T "GENRE=%m" -T "COMMENT=EAC FLAC -6" %s
TOC of the extracted CD
Track | Start | Length | Start sector | End sector
---------------------------------------------------------
1 | 0:00.00 | 2:06.74 | 0 | 9523
2 | 2:06.74 | 18:14.19 | 9524 | 91592
3 | 20:21.18 | 14:11.12 | 91593 | 155429
4 | 34:32.30 | 7:03.62 | 155430 | 187216
5 | 41:36.17 | 15:09.56 | 187217 | 255447
6 | 56:45.73 | 13:56.51 | 255448 | 318198
7 | 70:42.49 | 3:36.26 | 318199 | 334424
Range status and errors
Selected range
Filename C:\Users\Igor\Music\eac\Sonore - Call Before You Dig (Disc 1).wav
Peak level 89.1 %
Range quality 100.0 %
Test CRC 4C17D042
Copy CRC 4C17D042
Copy OK
No errors occurred
AccurateRip summary
Track 1 not present in database
Track 2 not present in database
Track 3 accurately ripped (confidence 2) [FF5AFD62]
Track 4 not present in database
Track 5 accurately ripped (confidence 2) [4D9E4074]
Track 6 accurately ripped (confidence 2) [A1B57636]
Track 7 accurately ripped (confidence 2) [C1444575]
4 track(s) accurately ripped
3 track(s) not present in the AccurateRip database
Some tracks could not be verified as accurate
End of status report
 
EAC Report (Disc 2)
Exact Audio Copy V0.99 prebeta 5 from 4. May 2009
EAC extraction logfile from 22. December 2009, 21:51
Sonore / Call Before You Dig (Disc 2)
Used drive : hp DVD-RAM GH40L Adapter: 0 ID: 1
Read mode : Secure
Utilize accurate stream : Yes
Defeat audio cache : Yes
Make use of C2 pointers : No
Read offset correction : 667
Overread into Lead-In and Lead-Out : No
Fill up missing offset samples with silence : Yes
Delete leading and trailing silent blocks : No
Null samples used in CRC calculations : Yes
Used interface : Installed external ASPI interface
Used output format : User Defined Encoder
Selected bitrate : 1024 kBit/s
Quality : High
Add ID3 tag : No
Command line compressor : C:\Program Files\Exact Audio Copy\Flac\flac.exe
Additional command line options : -6 -V -T "ARTIST=%a" -T "TITLE=%t" -T "ALBUM=%g" -T "DATE=%y" -T "TRACKNUMBER=%n" -T "GENRE=%m" -T "COMMENT=EAC FLAC -6" %s
TOC of the extracted CD
Track | Start | Length | Start sector | End sector
---------------------------------------------------------
1 | 0:00.00 | 4:52.49 | 0 | 21948
2 | 4:52.49 | 3:01.68 | 21949 | 35591
3 | 7:54.42 | 2:23.51 | 35592 | 46367
4 | 10:18.18 | 3:11.30 | 46368 | 60722
5 | 13:29.48 | 3:06.26 | 60723 | 74698
6 | 16:35.74 | 2:12.08 | 74699 | 84606
7 | 18:48.07 | 5:42.48 | 84607 | 110304
8 | 24:30.55 | 2:59.29 | 110305 | 123758
9 | 27:30.09 | 2:24.00 | 123759 | 134558
10 | 29:54.09 | 3:25.33 | 134559 | 149966
11 | 33:19.42 | 3:18.66 | 149967 | 164882
12 | 36:38.33 | 3:16.25 | 164883 | 179607
13 | 39:54.58 | 3:39.08 | 179608 | 196040
14 | 43:33.66 | 4:41.21 | 196041 | 217136
15 | 48:15.12 | 2:04.10 | 217137 | 226446
16 | 50:19.22 | 4:43.58 | 226447 | 247729
17 | 55:03.05 | 3:33.21 | 247730 | 263725
Range status and errors
Selected range
Filename C:\Users\Igor\Music\eac\Sonore - Call Before You Dig (Disc 2).wav
Peak level 89.1 %
Range quality 100.0 %
Test CRC E78B059A
Copy CRC E78B059A
Copy OK
No errors occurred
AccurateRip summary
Track 1 not present in database
Track 2 accurately ripped (confidence 2) [FD94D893]
Track 3 accurately ripped (confidence 2) [95D4CBBE]
Track 4 accurately ripped (confidence 2) [BFB10BA0]
Track 5 not present in database
Track 6 accurately ripped (confidence 2) [310D7BE3]
Track 7 not present in database
Track 8 accurately ripped (confidence 2) [D07BC7E1]
Track 9 accurately ripped (confidence 2) [6B3ABFF7]
Track 10 accurately ripped (confidence 2) [5B267161]
Track 11 accurately ripped (confidence 2) [056E6DE8]
Track 12 accurately ripped (confidence 2) [CC3B349C]
Track 13 accurately ripped (confidence 2) [A88932CF]
Track 14 accurately ripped (confidence 2) [41544C24]
Track 15 accurately ripped (confidence 2) [B271E51B]
Track 16 accurately ripped (confidence 2) [C5C39EF5]
Track 17 accurately ripped (confidence 2) [AE3D3AB7]
14 track(s) accurately ripped
3 track(s) not present in the AccurateRip database
Some tracks could not be verified as accurate
End of status report
Any questions -> support@pro-jazz.com. По всем вопросам пишите -> support@pro-jazz.com
17:37
186
Нет комментариев. Ваш будет первым!