Вы используете незарегистрированную версию компонента "Вкладки"!

Поиск

(Free Improvisation / Avant-Garde) Circulasione Totale Orchestra - Open Port - 2008, FLAC (image+.cue), lossless

(Free Improvisation / Avant-Garde) Circulasione Totale Orchestra - Open Port - 2008, FLAC (image+.cue), lossless
Треклист:
Circulasione Totale Orchestra - Open Port
Жанр: Free Improvisation / Avant-Garde
Год выпуска диска: 2008
Производитель диска: Norway (Circulasione Totale CT09)
Аудио кодек: FLAC
Тип рипа: image+.cue
Битрейт аудио: lossless
Продолжительность: 48:16
Louis Moholo-Moholo drums
Morten J. Olsen electronics, drums
Anders Hana guitar
Frode Gjerstad sax,clarinets
Nick Stephens acoustic bass
Paal Nilssen-Love drums
Ingebrigt H. Flaten acoustic bass
Børre Mølstad tuba
Sabir Mateen sax and clarinets
Kevin Norton vibraphone
Bobby Bradford cornet
Lasse Marhaug electronics
John Hegre live sound
Yellow Bass & Silver Cornet (In Memory of Johnny Mbizo Dyani And John Stevens)
1. I
2. II
3. III
4. IV
Recorded May 10th in Stavanger.

 
AAJ Review
Circulasione Totale Orchestra This largely high-impact orchestra launched in 1984 by Norwegian multi-reedman Frode Gjerstad is more of a collective, where young and veteran jazz-based improvisers pass through to abet the unit’s continual evolution. It’s an acoustic-electric format that might be analogous to a histogram amidst the abundance of pointy spikes and steady-state flows. It’s an international gala indeed, featuring vibraphonist Kevin Norton, cornetist Bobby Bradford and drummers Paal Nilssen-Love and Louis Moholo, who augment the thirteen-piece gathering of like-minded improvisers. Here, Morten J. Olsen and Lasse Marhaug provide the existential overtones via electronics, while Olsen also employs an arsenal of percussion instruments to align and complement the drummers’ asymmetrical pulses. The orchestra looms as a multidimensional powerhouse, teeming with interesting contrasts and knotty sojourns. With jangling percussion, supple interludes and blistering crescendos, it elicits notions of a subterranean environ. This is partly due to Borre Molstad’s understated tuba lines on the second movement of the lone piece, dedicated to Gjerstad’s former band-mates in the group Detail, titled “Yellow Bass & Silver Cornet (In Memory of Johnny Mbizo Dyani And John Stevens).” Gjerstad then accelerates the variable cadences with his wily clarinet phrasings atop Anders Hana’s blistering rock guitar lines. At times, the musicians perform as though they’re possessed by spirits, with the intentions of rising to a state of divine fulfillment. In alternating regions of sound and scope the artists execute a barrage of soul searching motifs, firmed up with free-form exchanges and weaving horns choruses. But they also mix it up with scrappy interplay, creating a mind-altering experience that is incredibly powerful and intense. Gjerstad and friends prove, beyond a doubt, that free improvisation coupled with synergistic interplay yields substance. It’s a 360 degree panorama of rapidly-moving themes, underscored by gobs of imagery and the instrumentalists finely tuned improvisational faculties. ~ Glenn Astarita, AAJ
 
EAC Report
Exact Audio Copy V0.99 prebeta 5 from 4. May 2009
EAC extraction logfile from 24. December 2009, 0:10
Circulasione Totale Orchestra / Open Port
Used drive : TSSTcorpCD/DVDW SH-S182M Adapter: 1 ID: 0
Read mode : Secure
Utilize accurate stream : Yes
Defeat audio cache : Yes
Make use of C2 pointers : No
Read offset correction : 6
Overread into Lead-In and Lead-Out : No
Fill up missing offset samples with silence : Yes
Delete leading and trailing silent blocks : No
Null samples used in CRC calculations : Yes
Used interface : Installed external ASPI interface
Used output format : User Defined Encoder
Selected bitrate : 1024 kBit/s
Quality : High
Add ID3 tag : No
Command line compressor : C:\Program Files\Exact Audio Copy\Flac\flac.exe
Additional command line options : -6 -V -T "ARTIST=%a" -T "TITLE=%t" -T "ALBUM=%g" -T "DATE=%y" -T "TRACKNUMBER=%n" -T "GENRE=%m" -T "COMMENT=EAC FLAC -6" %s
TOC of the extracted CD
Track | Start | Length | Start sector | End sector
---------------------------------------------------------
1 | 0:00.00 | 15:20.36 | 0 | 69035
2 | 15:20.36 | 8:08.25 | 69036 | 105660
3 | 23:28.61 | 13:23.17 | 105661 | 165902
4 | 36:52.03 | 11:24.42 | 165903 | 217244
Range status and errors
Selected range
Filename C:\Users\Igor\Music\eac\Circulasione Totale Orchestra - Open Port.wav
Peak level 93.0 %
Range quality 100.0 %
Test CRC 11C5C2C9
Copy CRC 11C5C2C9
Copy OK
No errors occurred
AccurateRip summary
Track 1 not present in database
Track 2 not present in database
Track 3 not present in database
Track 4 not present in database
None of the tracks are present in the AccurateRip database
End of status report
Any questions -> support@pro-jazz.com. По всем вопросам пишите -> support@pro-jazz.com
17:37
169
Нет комментариев. Ваш будет первым!