Вы используете незарегистрированную версию компонента "Вкладки"!

Поиск

(Free Jazz) Archie Shepp - Blase / Live at the Pan-African Festival 2CDs - 1969, APE (image+.cue), lossless

(Free Jazz) Archie Shepp - Blase / Live at the Pan-African Festival 2CDs - 1969, APE (image+.cue), lossless
Треклист:
Archie Shepp - Blase / Live at the Pan-African Festival 2CDs
Жанр: Free Jazz
Год выпуска диска: 1969
Производитель диска: 2001, Charly Records Ltd. SNAF 819CD
Аудио кодек: APE
Тип рипа: image+.cue
Битрейт аудио: lossless
Продолжительность: cd1 41:08; cd2 47:20;
Трэклист:
CD1:
1. My Angel 10:11
2. Blase 10:27
3. There Is a Balm in Gilead 5:59
4. Sophisitcated Lady 5:13
5. Touareg 9:17
CD2:
1. Brotherhood 15:58
2. We Have Come Back 31:22
Archie Shepp — Sax (Tenor)
Jeanne Lee — Vocals
Clifford Thornton — Cornet
Lester Bowie — Trumpet, Flugelhorn
Grachan Moncur III — Trombone
Dave Burrell — Piano
Chicago Beau — Harmonica
Julio Finn — Harmonica
Alan Silva — Bass
Malachi Favors — Bass
Philly Joe Jones — Drums
Sunny Murray — Drums
Доп. информация:
 
скрытый текст
AMG:
"As the '60s drew to a close in a hail of blood and lead, jazz gradually began to close its doors. What had blossomed in the '50s and '60s as young men struggled to raise a music out of the whorehouses of New Orleans and into the concert halls turned into something less and more than it had been. Musicians like Archie Shepp no longer looked to the future or to what they might borrow from classical forms. Instead, they looked back to the cotton fields, the slave market, and the slum to find their voice. The music took an angry turn, emphatically stating, "This is our music." Stunned by the assassinations of Martin and Malcolm, many young musicians turned from a country and a culture they thought had betrayed them. Archie Shepp went to Paris. There, in the summer of 1969, he cut these albums, each a classic in its own right, each a milestone in an under-appreciated career. Blase looks back to the blues, soaked in harmonica and the brooding duet of Shepp's throaty tenor and Jeanne Lee's magnificent, pensive voice. The mood is dark, but proud and unyielding. This is the sound of those who have been wounded, those who will rise yet again. The overall effect is like some wonderful, alternate version of Porgy & Bess, an expression of hope and dignity where few would bother to look. The live record that closes the set finds Shepp reaching deeper into the music's past, going all the way to Algiers to play in the streets with whoever wants to lend a hand. The metaphoric value of that union is profoundly moving. The sound of the music is a joy, and one that will reward repeated listening. The '60s weren't a lot of fun for black musicians, regardless of what happened to flower power. This set is proof that for all the abuse that was heaped on them by their nation, for all the disappointments they endured, men and women could somehow emerge with their dignity intact."
 
EAC extraction logfiles
 
cd1
Exact Audio Copy V0.99 prebeta 4 from 23. January 2008
EAC extraction logfile from 26. July 2009, 20:33
Archie Shepp / Blasй with Live at the Pan-African Festival Disc 1 Blasй
Used drive : HL-DT-STRW/DVD GCC-4242N Adapter: 1 ID: 0
Read mode : Secure
Utilize accurate stream : Yes
Defeat audio cache : Yes
Make use of C2 pointers : No
Read offset correction : 102
Overread into Lead-In and Lead-Out : No
Fill up missing offset samples with silence : Yes
Delete leading and trailing silent blocks : No
Null samples used in CRC calculations : Yes
Used interface : Native Win32 interface for Win NT & 2000
Used output format : Internal WAV Routines
Sample format : 44.100 Hz; 16 Bit; Stereo
TOC of the extracted CD
Track | Start | Length | Start sector | End sector
---------------------------------------------------------
1 | 0:00.00 | 10:11.15 | 0 | 45839
2 | 10:11.15 | 10:27.30 | 45840 | 92894
3 | 20:38.45 | 5:59.30 | 92895 | 119849
4 | 26:38.00 | 5:13.45 | 119850 | 143369
5 | 31:51.45 | 9:17.20 | 143370 | 185164
Range status and errors
Selected range
Filename C:\_\EAC_Out\Out\Archie Shepp - Blasй with Live at the Pan-African Festival Disc 1 Blasй\Archie Shepp - Blasй with Live at the Pan-African Festival Disc 1 Blasй.wav
Peak level 86.5 %
Range quality 100.0 %
Copy CRC B1B00A02
Copy OK
No errors occurred
AccurateRip summary
Track 1 cannot be verified as accurate (confidence 2) [7D1F4995], AccurateRip returned [110F21BF]
Track 2 cannot be verified as accurate (confidence 2) [AFB0326F], AccurateRip returned [27FCA887]
Track 3 not present in database
Track 4 cannot be verified as accurate (confidence 2) [FD3B9562], AccurateRip returned [7B28CE3C]
Track 5 cannot be verified as accurate (confidence 2) [25636DB6], AccurateRip returned [A8F6F5A6]
4 track(s) could not be verified as accurate
1 track(s) not present in the AccurateRip database
No tracks could be verified as accurate
You may have a different pressing from the one(s) in the database
End of status report
 
cd2
Exact Audio Copy V0.99 prebeta 4 from 23. January 2008
EAC extraction logfile from 26. July 2009, 21:03
Archie Shepp / Live at the Pan-African Festival
Used drive : HL-DT-STRW/DVD GCC-4242N Adapter: 1 ID: 0
Read mode : Secure
Utilize accurate stream : Yes
Defeat audio cache : Yes
Make use of C2 pointers : No
Read offset correction : 102
Overread into Lead-In and Lead-Out : No
Fill up missing offset samples with silence : Yes
Delete leading and trailing silent blocks : No
Null samples used in CRC calculations : Yes
Used interface : Native Win32 interface for Win NT & 2000
Used output format : Internal WAV Routines
Sample format : 44.100 Hz; 16 Bit; Stereo
TOC of the extracted CD
Track | Start | Length | Start sector | End sector
---------------------------------------------------------
1 | 0:00.00 | 15:58.57 | 0 | 71906
2 | 15:58.57 | 31:22.05 | 71907 | 213061
Range status and errors
Selected range
Filename C:\_\EAC_Out\Out\Archie Shepp - Live at the Pan-African Festival Disc 2\Archie Shepp - Live at the Pan-African Festival.wav
Peak level 79.2 %
Range quality 99.9 %
Copy CRC 15C1CA2E
Copy OK
No errors occurred
AccurateRip summary
Track 1 accurately ripped (confidence 2) [A74E8222]
Track 2 accurately ripped (confidence 2) [F7AB75E9]
All tracks accurately ripped
End of status report
Any questions -> support@pro-jazz.com. По всем вопросам пишите -> support@pro-jazz.com
17:39
255
Нет комментариев. Ваш будет первым!