Вы используете незарегистрированную версию компонента "Вкладки"!

Поиск

(Free Improvisation / Experimental) Keith Rowe & Toshimaru Nakamura - Weather Sky - 2001, FLAC (tracks), lossless

Треклист:
Keith Rowe & Toshimaru Nakamura - Weather Sky
Жанр: Free Improvisation / Experimental
Год выпуска диска: 2001
Производитель диска: США
Аудио кодек: FLAC
Тип рипа: tracks
Битрейт аудио: lossless
Продолжительность: 73:00
Трэклист:
01. Weather Sky #1 40:32
02. Weather Sky #2 5:02
03. Weather Sky #3 27:26
Музыканты:

Keith Rowe - guitar, electronics
Toshimaru Nakamura - no-input mixing board
 
EAC log
Exact Audio Copy V0.99 prebeta 3 from 28. July 2007
EAC extraction logfile from 12. May 2008, 11:54
Various / Weather Sky
Used drive : HL-DT-STRW/DVD GCC-4521B Adapter: 1 ID: 0
Read mode : Burst
Read offset correction : 6
Overread into Lead-In and Lead-Out : No
Fill up missing offset samples with silence : Yes
Delete leading and trailing silent blocks : No
Null samples used in CRC calculations : No
Used interface : Installed external ASPI interface
Gap handling : Not detected, thus appended to previous track
Used output format : Internal WAV Routines
Sample format : 44.100 Hz; 16 Bit; Stereo
TOC of the extracted CD
Track | Start | Length | Start sector | End sector
---------------------------------------------------------
1 | 0:00.00 | 40:32.07 | 0 | 182406
2 | 40:32.07 | 5:02.32 | 182407 | 205088
3 | 45:34.39 | 27:26.12 | 205089 | 328550
Track 1
Filename C:\Documents and Settings\Anton\My Documents\Downloads\Keith Rowe, Tohsimaru, Nakamura - Weather Sky\(01) Weather Sky #1 .wav
Peak level 96.9 %
Test CRC 8F2F1D08
Copy CRC 8F2F1D08
Track not present in AccurateRip database
Copy OK
Track 2
Filename C:\Documents and Settings\Anton\My Documents\Downloads\Keith Rowe, Tohsimaru, Nakamura - Weather Sky\(02) Weather Sky #2 .wav
Peak level 92.9 %
Test CRC 675A6058
Copy CRC 675A6058
Track not present in AccurateRip database
Copy OK
Track 3
Filename C:\Documents and Settings\Anton\My Documents\Downloads\Keith Rowe, Tohsimaru, Nakamura - Weather Sky\(03) Weather Sky #3 .wav
Peak level 96.9 %
Test CRC F46F44F4
Copy CRC F46F44F4
Track not present in AccurateRip database
Copy OK
None of the tracks are present in the AccurateRip database
No errors occurred
End of status report
 
другая интересная музыка в lossless
(Avant-Garde Jazz) Ben Monder Trio - Oceana - 2005, FLAC (image+.cue), lossless
(Avant-Garde Jazz) Ben Monder - Excavation - 2000, FLAC (image+.cue), lossless
(Avant-Garde Jazz) Ben Monder Trio - Flux - 1995, FLAC (image+.cue), lossless
(Avant-Garde Jazz) Cecil Taylor Unit - The Eighth - 1981, FLAC (tracks+.cue), lossless
(Avant-Garde Jazz) Cecil Taylor - Algonquin - 2004, APE (tracks), losless
(Avant-Garde Jazz) Henry Threadgill Sextett - Rag, Bush and All - 1989, FLAC (image+.cue), lossless
(Avant-Garde Jazz) Henry Threadgill Very Very Circus - Carry The Day - 1995, FLAC (tracks), lossless
(Avant-Garde Jazz / Free Jazz) Joe McPhee - Nation Time - 1971, FLAC (tracks), lossless
(Avant-Garde Jazz) Pandelis Karayorgis, Mat Maneri - Disambiguation - 2002, FLAC (tracks+.cue)
(Post-Bop / Free Jazz) Steve Lacy - Soprano Sax - 1958, FLAC (tracks+.cue), lossless
(Post-Bop, Free Jazz) Steve Lacy - Reflections: Steve Lacy Plays Thelonious Monk - 1959, FLAC (tracks+.cue), lossless
(Post-Bop / Avant-Garde Jazz) Steve Lacy - The Straight Horn Of Steve Lacy - 1961, FLAC (tracks+.cue), lossless
(Bop / Progressive Jazz) Steve Lacy with Don Cherry - Evidence - 1962, APE (image+.cue), lossless
(Free Jazz / Post Bop) Steve Lacy - Disposability - 1966, APE (image+.cue), lossless
(Avant-Garde Jazz / Post-Bop) Steve Lacy - The Door - 1989, FLAC (tracks+.cue), lossless
(Avant-Garde Jazz / Post-Bop) Steve Lacy & Mal Waldron - Hot House - 1991, FLAC (tracks+.cue), lossless
(Avant-Garde Jazz) Vinny Golia, Joelle Leandre & Ken Filiano - Haunting the Spirits Inside Them - 1995, APE (image+.cue), lossless
(Avant-Garde / Free Improvisation) Alexander Nesterov, Yuriy Yaremchuk / Александр Нестеров, Юрий Яремчук - Prepared Piano and Soprano Saxophone - 1994, FLAC (tracks+.cue), lossless
(Avant-Garde Jazz / Free Improvisation) Yuriy Yaremchuk, Sergej Zelenskiy / Юрий Яремчук, Сергей Зеленский - Figures - 2002, FLAC (tracks+.cue), lossless
(Avant-Garde Jazz / Free Improvisation) Yuriy Yaremchuk, Mark Tokar / Юрий Яремчук, Марк Токар - Eight Compositions - 2005, FLAC (tracks+.cue), lossless
(Avant-Garde Jazz / Free Improvisation) Yuriy Yaremchuk / Юрий Яремчук - Seven Compositions - 2006, FLAC (tracks+.cue), lossless
(Avant-Garde Jazz / Free Improvisation) Yuriy Yaremchuk / Юрий Яремчук - Six Compositions for Tenor Sax and Synthesizer Yamaha - 2008, FLAC (tracks+.cue), lossless
(Avant-Garde Jazz / Free Improvisation) Vladislav Makarov, Yuriy Yaremchuk, Andrij Orel / Владислав Макаров, Юрий Яремчук, Андрий Орел - Gogolfest Projekt - 2008, FLAC (tracks+.cue), lossless
(Folk/Ukrainian) Ніна Матвієнко - Золотослов / Нина Матвиенко - Золотослов - 1997, APE (image+.cue)
Any questions -> support@pro-jazz.com. По всем вопросам пишите -> support@pro-jazz.com
17:39
156
Нет комментариев. Ваш будет первым!