Вы используете незарегистрированную версию компонента "Вкладки"!

Поиск

(Free-Jazz, Avant-Garde) Adam Lane, Ken Vandermark, Magnus Broo, Paal Nilssen Love - 4 Corners - 2007, FLAC (tracks+.cue), lossless

(Free-Jazz, Avant-Garde) Adam Lane, Ken Vandermark, Magnus Broo, Paal Nilssen Love - 4 Corners - 2007, FLAC (tracks+.cue), lossless
Треклист:
Adam Lane, Ken Vandermark, Magnus Broo, Paal Nilssen Love - 4 Corners
Жанр: Free-Jazz, Avant-Garde
Год выпуска диска: 2007
Производитель диска: USA
Аудио кодек: FLAC
Тип рипа: tracks+.cue
Битрейт аудио: lossless
Продолжительность: 1:13:37
Трэклист:
1. Alfama (For Georges Braque) (10:07)
2. Spin with the Earth (9:58)
3. Short Stop (For Bobby Bradford) (9:52)
4. Lucia (11:01)
5. Ashcan Rantings (9:39)
6. Tomorrow Now (For Lester Bowie) (8:53)
7. Chichi Rides the Tiger (14:07)
Доп. информация: Ken Vandermark - baritone sax, clarinet, bass clarinet
Adam Lane - double bass , composer
Magnus Broo - trumpet
Paal Nilssen-Love - drums
1, 3 and 6 by Ken Vandermark.
2, 4, 5 and 7 by Adam Lane.
 
Log EAC
Exact Audio Copy V0.99 prebeta 4 from 23. January 2008
EAC extraction logfile from 23. November 2008, 2:48
Adam Lane, Ken Vandermark, Magnus Broo, Paal Nilssen-Love / 4 Corners
Used drive : TSSTcorpCD/DVDW SH-S182M Adapter: 0 ID: 0
Read mode : Secure
Utilize accurate stream : Yes
Defeat audio cache : Yes
Make use of C2 pointers : No
Read offset correction : 6
Overread into Lead-In and Lead-Out : No
Fill up missing offset samples with silence : Yes
Delete leading and trailing silent blocks : No
Null samples used in CRC calculations : Yes
Used interface : Native Win32 interface for Win NT & 2000
Gap handling : Appended to previous track
Used output format : User Defined Encoder
Selected bitrate : 768 kBit/s
Quality : High
Add ID3 tag : No
Command line compressor : C:\Program Files (x86)\Exact Audio Copy\FLAC\FLAC.EXE
Additional command line options : -V -8 -T "artist=%a" -T "title=%t" -T "album=%g" -T "date=%y" -T "tracknumber=%n" -T "genre=%m" %s
TOC of the extracted CD
Track | Start | Length | Start sector | End sector
---------------------------------------------------------
1 | 0:00.00 | 10:07.60 | 0 | 45584
2 | 10:07.60 | 9:58.67 | 45585 | 90501
3 | 20:06.52 | 9:52.22 | 90502 | 134923
4 | 29:58.74 | 11:01.41 | 134924 | 184539
5 | 41:00.40 | 9:39.33 | 184540 | 227997
6 | 50:39.73 | 8:53.73 | 227998 | 268045
7 | 59:33.71 | 14:07.73 | 268046 | 331643
Track 1
Filename M:\Adam Lane, Ken Vandermark, Magnus Broo, Paal Nilssen-Love\[2007] 4 Corners []\01 - Adam Lane, Ken Vandermark, Magnus Broo, Paal Nilssen-Love - Alfama (for Georges Braque).wav
Pre-gap length 0:00:02.00
Peak level 99.3 %
Track quality 100.0 %
Test CRC 1788D306
Copy CRC 1788D306
Track not present in AccurateRip database
Copy OK
Track 2
Filename M:\Adam Lane, Ken Vandermark, Magnus Broo, Paal Nilssen-Love\[2007] 4 Corners []\02 - Adam Lane, Ken Vandermark, Magnus Broo, Paal Nilssen-Love - Spin With The EARth.wav
Pre-gap length 0:00:02.00
Peak level 88.5 %
Track quality 100.0 %
Test CRC 8AA2BD40
Copy CRC 8AA2BD40
Track not present in AccurateRip database
Copy OK
Track 3
Filename M:\Adam Lane, Ken Vandermark, Magnus Broo, Paal Nilssen-Love\[2007] 4 Corners []\03 - Adam Lane, Ken Vandermark, Magnus Broo, Paal Nilssen-Love - Short Stop (for Bobby Bradford).wav
Pre-gap length 0:00:03.00
Peak level 99.9 %
Track quality 100.0 %
Test CRC 13FA008A
Copy CRC 13FA008A
Track not present in AccurateRip database
Copy OK
Track 4
Filename M:\Adam Lane, Ken Vandermark, Magnus Broo, Paal Nilssen-Love\[2007] 4 Corners []\04 - Adam Lane, Ken Vandermark, Magnus Broo, Paal Nilssen-Love - Lucia.wav
Pre-gap length 0:00:03.00
Peak level 69.6 %
Track quality 100.0 %
Test CRC 674EE6B0
Copy CRC 674EE6B0
Track not present in AccurateRip database
Copy OK
Track 5
Filename M:\Adam Lane, Ken Vandermark, Magnus Broo, Paal Nilssen-Love\[2007] 4 Corners []\05 - Adam Lane, Ken Vandermark, Magnus Broo, Paal Nilssen-Love - Ashcan Rantings.wav
Pre-gap length 0:00:03.00
Peak level 99.3 %
Track quality 99.9 %
Test CRC 0E158B09
Copy CRC 0E158B09
Track not present in AccurateRip database
Copy OK
Track 6
Filename M:\Adam Lane, Ken Vandermark, Magnus Broo, Paal Nilssen-Love\[2007] 4 Corners []\06 - Adam Lane, Ken Vandermark, Magnus Broo, Paal Nilssen-Love - Tomorrow Now (for Lester Bowie).wav
Pre-gap length 0:00:03.00
Peak level 99.3 %
Track quality 99.9 %
Test CRC 8A3B3EEA
Copy CRC 8A3B3EEA
Track not present in AccurateRip database
Copy OK
Track 7
Filename M:\Adam Lane, Ken Vandermark, Magnus Broo, Paal Nilssen-Love\[2007] 4 Corners []\07 - Adam Lane, Ken Vandermark, Magnus Broo, Paal Nilssen-Love - ChiChi Rides The Tiger.wav
Pre-gap length 0:00:02.00
Peak level 99.3 %
Track quality 100.0 %
Test CRC A786FEEC
Copy CRC A786FEEC
Track not present in AccurateRip database
Copy OK
None of the tracks are present in the AccurateRip database
No errors occurred
End of status report
По всем вопросам пишите личное сообщение пользователю M0p94ok.
17:41
153
Нет комментариев. Ваш будет первым!